<?xml version="1.0" standalone="no"?>
<!DOCTYPE svg PUBLIC "-//W3C//DTD SVG 1.1//EN" "http://www.w3.org/Graphics/SVG/1.1/DTD/svg11.dtd" >
<svg xmlns="http://www.w3.org/2000/svg" xmlns:xlink="http://www.w3.org/1999/xlink" version="1.1">
<metadata>
Created by FontForge 20190801 at Sun Sep 20 14:34:08 2020
 By www-data
Copyright (c) 2005-2013 Canada Type. All rights reserved.
</metadata>
<defs>
<font id="TrumpGothicProMedium" horiz-adv-x="610" >
  <font-face 
    font-family="TrumpGothicProMedium"
    font-weight="500"
    font-stretch="normal"
    units-per-em="2048"
    panose-1="2 0 6 8 2 0 0 2 0 4"
    ascent="1638"
    descent="-410"
    x-height="1161"
    cap-height="1569"
    bbox="-195 -467 2114 1980"
    underline-thickness="102"
    underline-position="-307"
    unicode-range="U+000D-FB04"
  />
<missing-glyph horiz-adv-x="880" 
d="M102 0v1569h676v-1569h-676zM414 813l-189 500v-1043zM449 676l-179 -570h342zM604 1462h-317l162 -504zM655 1311l-155 -500l155 -545v1045z" />
    <glyph glyph-name="copyright" unicode="&#x28;C&#x29;" horiz-adv-x="1417" 
d="M705 -16q-170 0 -296 53.5t-204.5 157t-117 249t-38.5 334.5q0 386 162 593.5t496 207.5q333 0 496 -207.5t163 -591.5q0 -188 -39 -334t-119 -250t-206.5 -158t-296.5 -54zM711 127q508 0 508 651q0 660 -514 660q-508 0 -508 -652q0 -329 126.5 -494t387.5 -165z
M961 588q0 -177 -64 -252.5t-186 -75.5q-123 0 -186.5 76t-63.5 252v393q0 176 63.5 252t186.5 76q122 0 186 -75.5t64 -252.5v-72h-156v88q0 156 -94 156q-48 0 -71.5 -36.5t-23.5 -119.5v-426q0 -83 23.5 -119t71.5 -36q94 0 94 155v82h156v-65z" />
    <glyph glyph-name="registered" unicode="&#x28;R&#x29;" horiz-adv-x="798" 
d="M397 752q-177 0 -266.5 108t-89.5 309q0 410 358 410q182 0 270.5 -106.5t88.5 -303.5q0 -200 -91.5 -308.5t-269.5 -108.5zM401 836q143 0 206 82.5t63 246.5t-64.5 246t-208.5 82t-206 -82t-62 -242q0 -168 64.5 -250.5t207.5 -82.5zM457 922l-58 176h-28v-174h-103
v487h133q90 0 125 -30.5t35 -125.5q0 -66 -15 -97.5t-50 -43.5l65 -192h-104zM459 1262q0 63 -49 63h-39v-137h39q49 0 49 61v13z" />
    <glyph glyph-name="uni2117" unicode="&#x28;P&#x29;" horiz-adv-x="1417" 
d="M705 -16q-170 0 -296 53.5t-204.5 157t-117 249t-38.5 334.5q0 386 162 593.5t496 207.5q333 0 496 -207.5t163 -591.5q0 -188 -39 -334t-119 -250t-206.5 -158t-296.5 -54zM711 127q508 0 508 651q0 660 -514 660q-508 0 -508 -652q0 -329 126.5 -494t387.5 -165z
M500 281v1007h209q41 0 70.5 -2t62 -8.5t55 -18.5t43.5 -32.5t33.5 -49.5t20 -70.5t7.5 -94.5v-99q0 -159 -59.5 -220.5t-212.5 -61.5h-74v-350h-155zM844 1008q0 72 -23 102.5t-73 30.5h-93v-359h93q50 0 73 30t23 101v95z" />
    <glyph glyph-name="trademark" unicode="&#x28;TM&#x29;" horiz-adv-x="1310" 
d="M1102 848v510l-164 -510h-70l-151 506v-506h-125v721h170l147 -475l148 475h172v-721h-127zM215 848v596h-180v125h487v-125h-180v-596h-127z" />
    <glyph glyph-name="ff" unicode="ff" horiz-adv-x="796" 
d="M121 0v1010h-113v151h113v127q0 164 49.5 230.5t153.5 66.5q56 0 96 -12v-135q-16 2 -45 2q-57 0 -73.5 -32.5t-16.5 -117.5v-129h209v127q0 164 49 230.5t153 66.5q56 0 97 -12v-135q-16 2 -45 2q-57 0 -74 -33t-17 -117v-129h134v-151h-134v-1010h-163v1010h-209v-1010
h-164z" />
    <glyph glyph-name="fi" unicode="fi" horiz-adv-x="727" 
d="M121 0v1010h-113v151h113v127q0 164 49.5 230.5t153.5 66.5q56 0 96 -12v-135q-16 2 -45 2q-57 0 -73.5 -32.5t-16.5 -117.5v-129h133v-151h-133v-1010h-164zM494 0v1161h163v-1161h-163zM575 1294q-47 0 -78.5 32t-31.5 79t31.5 79t78.5 32t79 -32t32 -79t-32 -79
t-79 -32z" />
    <glyph glyph-name="fl" unicode="fl" horiz-adv-x="729" 
d="M121 0v1010h-113v151h113v127q0 164 49.5 230.5t153.5 66.5q56 0 96 -12v-135q-16 2 -45 2q-57 0 -73.5 -32.5t-16.5 -117.5v-129h133v-151h-133v-1010h-164zM494 0v1569h163v-1569h-163z" />
    <glyph glyph-name="ffi" unicode="ffi" horiz-adv-x="1099" 
d="M866 0v1161h164v-1161h-164zM948 1294q-47 0 -78.5 32t-31.5 79t31.5 79t78.5 32t79 -32t32 -79t-32 -79t-79 -32zM121 0v1010h-113v151h113v127q0 164 49.5 230.5t153.5 66.5q56 0 96 -12v-135q-16 2 -45 2q-57 0 -73.5 -32.5t-16.5 -117.5v-129h209v127q0 164 49 230.5
t153 66.5q56 0 97 -12v-135q-16 2 -45 2q-57 0 -74 -33t-17 -117v-129h134v-151h-134v-1010h-163v1010h-209v-1010h-164z" />
    <glyph glyph-name="ffl" unicode="ffl" horiz-adv-x="1101" 
d="M866 0v1569h164v-1569h-164zM121 0v1010h-113v151h113v127q0 164 49.5 230.5t153.5 66.5q56 0 96 -12v-135q-16 2 -45 2q-57 0 -73.5 -32.5t-16.5 -117.5v-129h209v127q0 164 49 230.5t153 66.5q56 0 97 -12v-135q-16 2 -45 2q-57 0 -74 -33t-17 -117v-129h134v-151h-134
v-1010h-163v1010h-209v-1010h-164z" />
    <glyph glyph-name="f_j" unicode="fj" horiz-adv-x="727" 
d="M121 0v1010h-113v151h113v127q0 164 49.5 230.5t153.5 66.5q56 0 96 -12v-135q-16 2 -45 2q-57 0 -73.5 -32.5t-16.5 -117.5v-129h133v-151h-133v-1010h-164zM358 -281q16 -2 35 -2q64 0 82.5 35.5t18.5 122.5v1286h163v-1288q0 -158 -46 -227.5t-167 -69.5q-41 0 -86 10
v133zM575 1294q-47 0 -78.5 32t-31.5 79t31.5 79t78.5 32t79 -32t32 -79t-32 -79t-79 -32z" />
    <glyph glyph-name="f_t" unicode="ft" horiz-adv-x="806" 
d="M793 -6q-45 -10 -88 -10q-121 0 -166 69t-45 238v719h-209v-1010h-164v1010h-113v151h113v127q0 164 49.5 230.5t153.5 66.5q56 0 96 -12v-135q-16 2 -45 2q-57 0 -73.5 -32.5t-16.5 -117.5v-129h209v287h163v-287h134v-151h-134v-731q0 -83 18 -116.5t75 -33.5
q27 0 43 2v-137z" />
    <glyph glyph-name=".notdef" horiz-adv-x="880" 
d="M102 0v1569h676v-1569h-676zM414 813l-189 500v-1043zM449 676l-179 -570h342zM604 1462h-317l162 -504zM655 1311l-155 -500l155 -545v1045z" />
    <glyph glyph-name=".null" horiz-adv-x="0" 
 />
    <glyph glyph-name="nonmarkingreturn" horiz-adv-x="682" 
 />
    <glyph glyph-name="NULL" horiz-adv-x="0" 
 />
    <glyph glyph-name="NULL" horiz-adv-x="0" 
 />
    <glyph glyph-name="CR" unicode="&#xd;" horiz-adv-x="512" 
 />
    <glyph glyph-name="space" unicode=" " horiz-adv-x="253" 
 />
    <glyph glyph-name="exclam" unicode="!" horiz-adv-x="339" 
d="M113 350l-33 1219h182l-37 -1219h-112zM170 -16q-45 0 -77 31t-32 75t32.5 76.5t76.5 32.5t75 -32t31 -77q0 -44 -31 -75t-75 -31z" />
    <glyph glyph-name="quotedbl" unicode="&#x22;" horiz-adv-x="483" 
d="M301 1139l-31 430h164l-31 -430h-102zM80 1139l-31 430h164l-31 -430h-102z" />
    <glyph glyph-name="numbersign" unicode="#" horiz-adv-x="1046" 
d="M444 82l107 414h-193l-106 -414h-158l107 414h-166l39 155h166l59 234h-193l39 155h195l104 414h158l-104 -414h192l105 414h157l-104 -414h166l-39 -155h-168l-59 -234h194l-39 -155h-194l-107 -414h-158zM649 885h-192l-60 -234h193z" />
    <glyph glyph-name="dollar" unicode="$" horiz-adv-x="690" 
d="M313 -131v106q-252 15 -252 336v213h168v-237q0 -127 84 -152v547q-51 46 -72.5 66t-64 67t-62 81t-36.5 84t-17 101v201q0 82 21 142.5t58.5 95t80 52t92.5 21.5v107h68v-109q246 -18 246 -309v-260h-168v260q0 121 -78 150v-580q13 -11 42 -36t44 -38t40 -38t39 -42.5
t32 -43.5t27 -50t15.5 -54t6.5 -61v-178q0 -318 -246 -336v-106h-68zM313 1434q-84 -25 -84 -152v-172q0 -101 84 -192v516zM459 457q0 70 -78 155v-475q35 11 56.5 48.5t21.5 101.5v170z" />
    <glyph glyph-name="percent" unicode="%" horiz-adv-x="1361" 
d="M399 0l422 1569h146l-422 -1569h-146zM489 874q0 -175 -48 -246t-173 -71q-126 0 -174.5 72.5t-48.5 244.5v388q0 172 48.5 244.5t174.5 72.5q125 0 173 -71t48 -246v-388zM340 1233q0 119 -13.5 159t-60.5 40q-42 0 -57.5 -34t-15.5 -122v-373q0 -119 13 -158.5
t60 -39.5q42 0 58 34t16 121v373zM1315 299q0 -175 -48 -246t-173 -71q-126 0 -175 73t-49 244v389q0 172 49 245t175 73q125 0 173 -71.5t48 -246.5v-389zM1165 659q0 117 -13 157t-60 40q-42 0 -58 -34.5t-16 -121.5v-372q0 -117 13.5 -157t60.5 -40q42 0 57.5 34
t15.5 122v372z" />
    <glyph glyph-name="ampersand" unicode="&#x26;" horiz-adv-x="741" 
d="M637 739v-438q0 -328 -283 -328q-282 0 -282 332v236q0 113 36.5 180.5t135.5 97.5q-100 28 -136 88t-36 170v195q0 323 286 323q138 0 208.5 -76.5t70.5 -238.5v-51h-168v55q0 80 -33.5 118t-81.5 38t-81 -39t-33 -119v-250q0 -40 18.5 -69t48.5 -42t56.5 -18.5
t52.5 -5.5h53v123h168v-123h74v-158h-74zM469 739h-53q-26 0 -52.5 -5.5t-56.5 -18.5t-48.5 -42t-18.5 -69v-317q0 -80 33 -118t81 -38t81.5 38t33.5 118v452z" />
    <glyph glyph-name="quotesingle" unicode="'" horiz-adv-x="262" 
d="M80 1139l-31 430h164l-31 -430h-102z" />
    <glyph glyph-name="parenleft" unicode="(" horiz-adv-x="380" 
d="M203 -352q-162 471 -162 960q0 490 162 961h166q-76 -195 -119 -445t-43 -516t43 -515.5t119 -444.5h-166z" />
    <glyph glyph-name="parenright" unicode=")" horiz-adv-x="380" 
d="M10 -352q76 195 119 444.5t43 515.5t-43 516t-119 445h166q162 -471 162 -961q0 -489 -162 -960h-166z" />
    <glyph glyph-name="asterisk" unicode="*" horiz-adv-x="587" 
d="M373 1049l-78 178l-80 -180l-113 65l125 164l-188 -21v127l182 -20l-123 162l113 65l84 -188l78 186l114 -63l-120 -164l180 20v-125l-182 21l122 -164z" />
    <glyph glyph-name="plus" unicode="+" horiz-adv-x="864" 
d="M354 373v295h-293v151h293v295h156v-295h293v-151h-293v-295h-156z" />
    <glyph glyph-name="comma" unicode="," horiz-adv-x="399" 
d="M-29 -276l166 481h191l-250 -481h-107z" />
    <glyph glyph-name="hyphen" unicode="-" horiz-adv-x="456" 
d="M66 520v156h325v-156h-325z" />
    <glyph glyph-name="period" unicode="." horiz-adv-x="327" 
d="M164 -16q-45 0 -77 31t-32 75t32.5 76.5t76.5 32.5t75 -32t31 -77q0 -44 -31 -75t-75 -31z" />
    <glyph glyph-name="slash" unicode="/" horiz-adv-x="612" 
d="M27 0l401 1569h158l-402 -1569h-157z" />
    <glyph glyph-name="zero" unicode="0" horiz-adv-x="716" 
d="M76 1268q0 327 289 327q133 0 204.5 -75.5t71.5 -251.5v-967q0 -91 -22 -156.5t-61.5 -102t-89 -53t-110.5 -16.5q-282 0 -282 328v967zM473 1282q0 79 -33 117.5t-82 38.5q-51 0 -82.5 -38t-31.5 -118v-995q0 -81 31.5 -118.5t82.5 -37.5q49 0 82 38t33 118v995z" />
    <glyph glyph-name="one" unicode="1" horiz-adv-x="497" 
d="M225 0v1380l-211 -75v163l236 101h141v-1569h-166z" />
    <glyph glyph-name="two" unicode="2" horiz-adv-x="665" 
d="M57 0v162q0 81 41 184t99 202t116 196.5t99 195.5t41 170v174q0 80 -33 117t-82 37t-82 -37t-33 -117v-231h-168v227q0 163 76.5 239t208.5 76q129 0 205 -75t76 -234v-199q0 -76 -40 -177.5t-97 -200t-114.5 -196t-99 -191.5t-43.5 -160h355v-162h-525z" />
    <glyph glyph-name="three" unicode="3" horiz-adv-x="698" 
d="M457 596q0 70 -44.5 103.5t-103.5 33.5q-19 0 -65 -4v164q15 -4 69 -4q24 0 47 7t46 22t37 45t14 71v248q0 80 -32.5 118t-80.5 38q-49 0 -83 -37t-34 -117v-223h-168v219q0 160 77.5 237.5t209.5 77.5q131 0 205 -75t74 -238v-203q0 -109 -34.5 -168.5t-127.5 -93.5
q90 -34 126 -99.5t36 -174.5v-250q0 -164 -75 -242t-206 -78t-208 78.5t-77 239.5v211h168v-215q0 -80 33.5 -118t83.5 -38q48 0 80.5 38t32.5 118v309z" />
    <glyph glyph-name="four" unicode="4" horiz-adv-x="688" 
d="M375 0v403h-355v164l269 1002h252v-1002h123v-164h-123v-403h-166zM375 1395l-185 -828h185v828z" />
    <glyph glyph-name="five" unicode="5" horiz-adv-x="694" 
d="M471 688q0 54 -9 90.5t-25.5 53.5t-33 23.5t-38.5 6.5q-107 0 -121 -137h-172v844h514v-164h-346v-502q62 115 190 115q94 0 151.5 -65.5t57.5 -200.5v-447q0 -168 -67.5 -250t-213.5 -82q-144 0 -215 80.5t-71 251.5v113h170v-127q0 -84 32.5 -122t81.5 -38
q48 0 81.5 40t33.5 120v397z" />
    <glyph glyph-name="six" unicode="6" horiz-adv-x="710" 
d="M643 305q0 -168 -67.5 -250t-213.5 -82q-144 0 -215 80.5t-71 251.5v971q0 165 71 242t213 77q139 0 210 -76t71 -243v-125h-168v131q0 80 -33.5 118t-81.5 38t-81 -38t-33 -118v-399q61 114 190 114q94 0 151.5 -65.5t57.5 -200.5v-426zM475 666q0 55 -9.5 92t-26.5 54
t-34 23.5t-38 6.5q-121 0 -121 -176v-375q0 -84 32.5 -122t81.5 -38q48 0 81.5 40t33.5 120v375z" />
    <glyph glyph-name="seven" unicode="7" horiz-adv-x="632" 
d="M27 0l409 1405h-397v164h592v-74l-424 -1495h-180z" />
    <glyph glyph-name="eight" unicode="8" horiz-adv-x="706" 
d="M635 291q0 -162 -77 -240t-206 -78t-205.5 78.5t-76.5 239.5v323q0 96 34.5 155.5t98.5 102.5q-133 72 -133 258v160q0 150 76 227.5t210 77.5q129 0 204 -74t75 -231v-160q0 -190 -133 -258q133 -89 133 -278v-303zM467 1282q0 80 -33.5 118t-81.5 38t-81 -38t-33 -118
v-197q0 -143 114 -143q115 0 115 143v197zM467 643q0 143 -115 143q-114 0 -114 -143v-356q0 -80 33 -118t81 -38t81.5 38t33.5 118v356z" />
    <glyph glyph-name="nine" unicode="9" horiz-adv-x="710" 
d="M467 686q-62 -115 -191 -115q-96 0 -152 65.5t-56 201.5v426q0 168 67 249.5t213 81.5q144 0 214.5 -80t70.5 -251v-971q0 -165 -70.5 -242.5t-212.5 -77.5q-139 0 -209.5 76.5t-70.5 243.5v125h168v-131q0 -80 33 -118t81 -38t81.5 38t33.5 118v399zM465 1278
q0 84 -33 122t-82 38q-48 0 -81 -40t-33 -120v-375q0 -55 9.5 -92t26.5 -54t34 -23.5t38 -6.5q121 0 121 176v375z" />
    <glyph glyph-name="colon" unicode=":" horiz-adv-x="346" 
d="M172 -16q-44 0 -75 31t-31 75q0 45 31 77t75 32t76.5 -32.5t32.5 -76.5t-32 -75t-77 -31zM172 692q-44 0 -75 31.5t-31 75.5t31 76t75 32t76.5 -32t32.5 -76t-32.5 -75.5t-76.5 -31.5z" />
    <glyph glyph-name="semicolon" unicode=";" horiz-adv-x="389" 
d="M205 692q-44 0 -75.5 31.5t-31.5 75.5t31.5 76t75.5 32t76 -32t32 -76t-32 -75.5t-76 -31.5zM-45 -276l166 481h190l-250 -481h-106z" />
    <glyph glyph-name="less" unicode="&#x3c;" horiz-adv-x="864" 
d="M647 70l-571 673l573 676l115 -100l-502 -576l502 -575z" />
    <glyph glyph-name="equal" unicode="=" horiz-adv-x="864" 
d="M61 829v152h742v-152h-742zM61 502v151h742v-151h-742z" />
    <glyph glyph-name="greater" unicode="&#x3e;" horiz-adv-x="864" 
d="M98 168l502 575l-502 576l115 100l573 -676l-571 -673z" />
    <glyph glyph-name="question" unicode="?" horiz-adv-x="641" 
d="M229 348l-20 533q9 -4 39 -4q26 0 54 5.5t59.5 18.5t52 42t20.5 69v272q0 81 -32.5 118.5t-84.5 37.5q-56 0 -84 -47t-28 -154v-178h-168v170q0 189 70 276.5t219 87.5q143 0 209.5 -83.5t66.5 -272.5v-152q0 -66 -4.5 -112t-18 -91t-38 -74t-65.5 -50t-99 -29l-21 -383
h-127zM299 -16q-45 0 -77 31t-32 75t32.5 76.5t76.5 32.5t75.5 -32.5t31.5 -76.5t-31.5 -75t-75.5 -31z" />
    <glyph glyph-name="at" unicode="@" horiz-adv-x="1409" 
d="M997 -367q-88 -53 -160 -76.5t-171 -23.5q-296 0 -462.5 207t-166.5 582q0 129 20.5 255.5t60.5 245t103.5 219t144 176t187.5 118t229 42.5q117 0 213.5 -39t162.5 -106t111 -158t66 -193t21 -212q0 -101 -17 -202t-53 -193.5t-86.5 -163.5t-121.5 -113.5t-154 -42.5
q-81 0 -131.5 40.5t-57.5 117.5q-35 -59 -96 -94t-125 -35q-117 0 -117 125q0 92 107 569q33 149 75 210.5t113 61.5q95 0 160 -100l16 82h154q-156 -724 -159 -752q-1 -8 -1 -16q0 -94 76 -94q61 0 111.5 57t81.5 147t48 193.5t17 204.5q0 119 -25 217.5t-75 174
t-131 117.5t-187 42q-117 0 -214.5 -51.5t-165 -139t-114.5 -204t-69 -246.5t-22 -267q0 -626 471 -626q89 0 158.5 22.5t146.5 69.5zM588 291q-13 -63 -13 -92q0 -64 50 -64q76 0 110 156q86 414 86 436q0 64 -55 64q-43 0 -66.5 -34.5t-40.5 -121.5z" />
    <glyph glyph-name="A" unicode="A" horiz-adv-x="665" 
d="M489 0l-43 369h-227l-43 -369h-168l211 1569h225l213 -1569h-168zM332 1337l-92 -811h186z" />
    <glyph glyph-name="B" unicode="B" horiz-adv-x="708" 
d="M80 0v1569h282q139 0 206 -75.5t67 -250.5v-201q0 -186 -150 -237q88 -25 129 -91.5t41 -160.5v-225q0 -180 -69 -254t-211 -74h-295zM467 1251q0 85 -27 119.5t-88 34.5h-104v-522h104q61 0 88 35t27 120v213zM487 565q0 156 -135 156h-104v-559h125q61 0 87.5 35
t26.5 120v248z" />
    <glyph glyph-name="C" unicode="C" horiz-adv-x="692" 
d="M637 301q0 -91 -22 -156.5t-61.5 -102t-89 -53t-110.5 -16.5q-282 0 -282 328v967q0 327 286 327q279 0 279 -321v-252h-168v260q0 80 -32.5 118t-84.5 38q-60 0 -86 -51t-26 -164v-936q0 -81 32 -118.5t84 -37.5q113 0 113 201v192h168v-223z" />
    <glyph glyph-name="D" unicode="D" horiz-adv-x="708" 
d="M80 0v1569h274q143 0 212 -72t69 -256v-913q0 -184 -69 -256t-212 -72h-274zM467 1249q0 85 -27 120.5t-88 35.5h-104v-1243h104q61 0 88 35t27 120v932z" />
    <glyph glyph-name="E" unicode="E" horiz-adv-x="622" 
d="M80 0v1569h489v-164h-321v-533h307v-163h-307v-547h321v-162h-489z" />
    <glyph glyph-name="F" unicode="F" horiz-adv-x="612" 
d="M80 0v1569h489v-164h-321v-533h307v-163h-307v-709h-168z" />
    <glyph glyph-name="G" unicode="G" horiz-adv-x="720" 
d="M489 625h-139v161h307v-485q0 -328 -292 -328q-293 0 -293 328v967q0 176 77 251.5t216 75.5t215.5 -76t76.5 -251v-246h-168v260q0 156 -124 156q-58 0 -91.5 -37.5t-33.5 -118.5v-995q0 -156 125 -156q124 0 124 156v338z" />
    <glyph glyph-name="H" unicode="H" horiz-adv-x="727" 
d="M477 0v715h-229v-715h-168v1569h168v-692h229v692h168v-1569h-168z" />
    <glyph glyph-name="I" unicode="I" horiz-adv-x="329" 
d="M80 0v1569h168v-1569h-168z" />
    <glyph glyph-name="J" unicode="J" horiz-adv-x="329" 
d="M-41 -393v157h6q48 0 81.5 38t33.5 118v1649h168v-1647q0 -74 -17 -131t-44 -91t-65 -55.5t-76 -29.5t-81 -8h-6z" />
    <glyph glyph-name="K" unicode="K" horiz-adv-x="690" 
d="M539 0l-289 784l250 785h168l-238 -778l277 -791h-168zM80 0v1569h168v-1569h-168z" />
    <glyph glyph-name="L" unicode="L" horiz-adv-x="493" 
d="M80 0v1569h168v-1407h229v-162h-397z" />
    <glyph glyph-name="M" unicode="M" horiz-adv-x="1042" 
d="M793 0l6 1227l-217 -1227h-136l-204 1229l6 -1229h-168v1569h266l174 -1110l174 1110h267v-1569h-168z" />
    <glyph glyph-name="N" unicode="N" horiz-adv-x="802" 
d="M520 0l-276 1071l4 -1071h-168v1569h192l285 -1090l-4 1090h168v-1569h-201z" />
    <glyph glyph-name="O" unicode="O" horiz-adv-x="710" 
d="M72 1268q0 327 288 327q133 0 205 -75.5t72 -251.5v-967q0 -91 -22 -156.5t-61.5 -102t-89 -53t-110.5 -16.5q-282 0 -282 328v967zM469 1282q0 79 -33 117.5t-82 38.5q-51 0 -82.5 -38t-31.5 -118v-995q0 -81 31.5 -118.5t82.5 -37.5q49 0 82 38t33 118v995z" />
    <glyph glyph-name="P" unicode="P" horiz-adv-x="677" 
d="M80 0v1569h270q143 0 214 -72.5t71 -255.5v-256q0 -183 -68.5 -255.5t-210.5 -72.5h-108v-657h-168zM467 1249q0 85 -27 120.5t-88 35.5h-104v-584h104q61 0 88 35.5t27 120.5v272z" />
    <glyph glyph-name="Q" unicode="Q" horiz-adv-x="710" 
d="M481 -281l-114 254q-155 0 -225 84t-70 244v967q0 327 288 327q132 0 204.5 -75t72.5 -252v-967q0 -116 -32 -185t-101 -106l108 -229zM469 1282q0 80 -32 118t-83 38q-49 0 -81.5 -38.5t-32.5 -117.5v-995q0 -80 32.5 -118t81.5 -38q52 0 83.5 37.5t31.5 118.5v995z" />
    <glyph glyph-name="R" unicode="R" horiz-adv-x="688" 
d="M508 0l-182 664h-78v-664h-168v1569h274q143 0 212 -72t69 -256v-244q0 -133 -34 -205t-118 -100l193 -692h-168zM467 1249q0 85 -27 120.5t-88 35.5h-104v-580h104q61 0 88 35.5t27 120.5v268z" />
    <glyph glyph-name="S" unicode="S" horiz-adv-x="681" 
d="M623 311q0 -338 -281 -338q-285 0 -285 338v213h168v-237q0 -81 32.5 -118.5t84.5 -37.5q113 0 113 191v135q0 40 -22 80.5t-57 76.5t-77.5 74.5t-85 81t-77.5 88t-57 103.5t-22 120v199q0 90 25 154.5t68.5 98t91 48t104.5 14.5q56 0 102.5 -14.5t87.5 -48t64 -98.5
t23 -156v-256h-168v260q0 81 -32.5 118.5t-84.5 37.5q-113 0 -113 -193v-135q0 -60 29.5 -115t73.5 -95.5t96 -87t96 -89.5t73.5 -104.5t29.5 -129.5v-178z" />
    <glyph glyph-name="T" unicode="T" horiz-adv-x="589" 
d="M211 0v1405h-195v164h557v-164h-194v-1405h-168z" />
    <glyph glyph-name="U" unicode="U" horiz-adv-x="720" 
d="M475 1569h168v-1268q0 -91 -22 -156.5t-61.5 -102t-89 -53t-110.5 -16.5q-282 0 -282 328v1268h168v-1282q0 -81 31.5 -118.5t82.5 -37.5q49 0 82 38t33 118v1282z" />
    <glyph glyph-name="V" unicode="V" horiz-adv-x="643" 
d="M434 0h-225l-193 1569h168l138 -1338l135 1338h168z" />
    <glyph glyph-name="W" unicode="W" horiz-adv-x="1093" 
d="M901 0h-219l-135 1223l-133 -1223h-221l-173 1569h168l117 -1256l135 1256h213l135 -1256l117 1256h168z" />
    <glyph glyph-name="X" unicode="X" horiz-adv-x="690" 
d="M522 0l-172 610l-192 -610h-168l272 807l-260 762h170l178 -559l166 559h170l-233 -764l237 -805h-168z" />
    <glyph glyph-name="Y" unicode="Y" horiz-adv-x="667" 
d="M250 0v565l-242 1004h170l154 -738l157 738h170l-243 -1004v-565h-166z" />
    <glyph glyph-name="Z" unicode="Z" horiz-adv-x="583" 
d="M29 0v162l327 1243h-309v164h506v-74l-352 -1333h352v-162h-524z" />
    <glyph glyph-name="bracketleft" unicode="[" horiz-adv-x="448" 
d="M92 -348v1917h330v-137h-170v-1637h170v-143h-330z" />
    <glyph glyph-name="backslash" unicode="\" horiz-adv-x="612" 
d="M428 0l-401 1569h157l402 -1569h-158z" />
    <glyph glyph-name="bracketright" unicode="]" horiz-adv-x="448" 
d="M27 -348v143h168v1637h-168v137h329v-1917h-329z" />
    <glyph glyph-name="asciicircum" unicode="^" horiz-adv-x="864" 
d="M598 879l-168 485l-170 -485h-172l256 690h176l254 -690h-176z" />
    <glyph glyph-name="underscore" unicode="_" horiz-adv-x="649" 
d="M66 -68v136h518v-136h-518z" />
    <glyph glyph-name="grave" unicode="`" horiz-adv-x="253" 
d="M152 1309l-162 237h186l105 -237h-129z" />
    <glyph glyph-name="a" unicode="a" horiz-adv-x="595" 
d="M391 0l-18 94q-52 -110 -164 -110q-53 0 -85.5 26t-51.5 100.5t-19 204.5v29q0 170 36 239.5t122 69.5q57 0 92.5 -24t61.5 -70v309q0 87 -16 121.5t-58 34.5t-58 -34.5t-16 -121.5v-77h-164v61q0 169 52 247.5t188 78.5t185.5 -80t49.5 -262v-836h-137zM365 356
q0 73 -17.5 107.5t-58.5 34.5q-45 0 -58.5 -39t-13.5 -144v-30q0 -81 15 -114.5t55 -33.5q78 0 78 154v65z" />
    <glyph glyph-name="b" unicode="b" horiz-adv-x="606" 
d="M70 0v1569h163v-496q13 23 23 37t29 32t45.5 27t60.5 9q89 0 121.5 -71.5t32.5 -242.5v-567q0 -172 -32.5 -242.5t-121.5 -70.5q-107 0 -166 110l-18 -94h-137zM381 870q0 84 -15 119t-55 35t-59 -36.5t-19 -129.5v-557q0 -91 19 -128.5t59 -37.5t55 34.5t15 121.5v579z
" />
    <glyph glyph-name="c" unicode="c" horiz-adv-x="585" 
d="M537 305q0 -177 -55.5 -249t-182.5 -72t-182.5 73t-55.5 254v537q0 181 55.5 255.5t182.5 74.5q126 0 182 -72t56 -248v-123h-164v154q0 73 -17.5 104t-58.5 31q-45 0 -58.5 -39.5t-13.5 -142.5v-570q0 -73 16.5 -104t57.5 -31q45 0 59.5 38.5t14.5 137.5v142h164v-150z
" />
    <glyph glyph-name="d" unicode="d" horiz-adv-x="606" 
d="M401 0l-18 94q-59 -110 -166 -110q-90 0 -123 71t-33 242v567q0 171 32.5 242.5t121.5 71.5q45 0 78.5 -18t48.5 -37.5t31 -49.5v496h164v-1569h-136zM373 858q0 93 -19 129.5t-59 36.5t-55 -35t-15 -119v-579q0 -87 15 -121.5t55 -34.5t59 37.5t19 128.5v557z" />
    <glyph glyph-name="e" unicode="e" horiz-adv-x="589" 
d="M537 307q0 -179 -55.5 -251t-182.5 -72t-182.5 73t-55.5 254v537q0 181 56.5 255.5t183.5 74.5t181.5 -74.5t54.5 -261.5v-328h-312v-242q0 -73 16.5 -104t57.5 -31q39 0 56.5 32t17.5 103v111h164v-76zM373 850q0 99 -14.5 136.5t-59.5 37.5q-47 0 -60.5 -36.5
t-13.5 -137.5v-184h148v184z" />
    <glyph glyph-name="f" unicode="f" horiz-adv-x="423" 
d="M121 0v1010h-113v151h113v127q0 164 49.5 230.5t153.5 66.5q56 0 96 -12v-135q-16 2 -45 2q-57 0 -73.5 -32.5t-16.5 -117.5v-129h133v-151h-133v-1010h-164z" />
    <glyph glyph-name="g" unicode="g" horiz-adv-x="600" 
d="M537 -115q0 -162 -62 -230.5t-188 -68.5q-131 0 -188.5 73t-57.5 245v123q0 137 63 219q-2 3 -7 12.5t-6.5 13.5t-5.5 12.5t-5 14.5l-2.5 15t-1.5 18q0 66 71 137q-44 37 -65 92t-21 148v161q0 165 54.5 236.5t177.5 71.5q81 0 125 -31h178v-96l-98 2q39 -59 39 -172
v-166q0 -157 -58 -224t-182 -67q-43 0 -55 4q-29 -26 -29 -51q0 -55 98 -55q114 -2 170 -71.5t56 -236.5v-129zM373 868q0 87 -16 121.5t-58 34.5t-58 -34.5t-16 -121.5v-137q0 -87 16 -121.5t58 -34.5t58 34.5t16 121.5v137zM373 2q0 100 -16 133t-66 33q-49 0 -67.5 -32
t-18.5 -118v-122q0 -86 20.5 -121t65.5 -35q43 0 62.5 32t19.5 115v115z" />
    <glyph glyph-name="h" unicode="h" 
d="M379 0v870q0 84 -15 119t-55 35t-59 -36.5t-19 -129.5v-858h-163v1569h163v-496q32 52 52 69q42 36 106 36q89 0 121.5 -71t32.5 -243v-864h-164z" />
    <glyph glyph-name="i" unicode="i" horiz-adv-x="301" 
d="M68 0v1161h163v-1161h-163zM150 1294q-47 0 -79 32t-32 79t32 79t79 32t78.5 -32t31.5 -79t-31.5 -79t-78.5 -32z" />
    <glyph glyph-name="j" unicode="j" horiz-adv-x="301" 
d="M-68 -281q16 -2 35 -2q64 0 82.5 35.5t18.5 122.5v1286h163v-1288q0 -158 -46 -227.5t-167 -69.5q-41 0 -86 10v133zM150 1294q-47 0 -79 32t-32 79t32 79t79 32t78.5 -32t31.5 -79t-31.5 -79t-78.5 -32z" />
    <glyph glyph-name="k" unicode="k" horiz-adv-x="612" 
d="M442 0l-209 594l209 567h168l-200 -561l198 -600h-166zM68 0v1569h163v-1569h-163z" />
    <glyph glyph-name="l" unicode="l" horiz-adv-x="305" 
d="M70 0v1569h163v-1569h-163z" />
    <glyph glyph-name="m" unicode="m" horiz-adv-x="921" 
d="M692 0v870q0 85 -14.5 119.5t-54.5 34.5t-59 -35.5t-19 -124.5v-864h-164v870q0 84 -15 119t-55 35t-59 -36.5t-19 -129.5v-858h-163v1161h137l18 -94q59 111 166 111q59 0 91 -31t50 -100q27 62 65.5 96.5t104.5 34.5q89 0 121.5 -71.5t32.5 -242.5v-864h-164z" />
    <glyph glyph-name="n" unicode="n" 
d="M381 0v870q0 84 -15 119t-55 35t-59 -36.5t-19 -129.5v-858h-163v1161h137l18 -94q59 111 166 111q89 0 121.5 -71t32.5 -243v-864h-164z" />
    <glyph glyph-name="o" unicode="o" horiz-adv-x="600" 
d="M537 268q0 -154 -60 -219t-178 -65q-120 0 -179 65.5t-59 218.5v625q0 153 59 219t179 66q118 0 178 -65.5t60 -219.5v-625zM373 889q0 73 -17.5 104t-58.5 31q-46 0 -59 -40t-13 -148v-564q0 -73 16.5 -104t57.5 -31q39 0 56.5 32t17.5 103v617z" />
    <glyph glyph-name="p" unicode="p" horiz-adv-x="608" 
d="M70 -408v1569h137l18 -94q59 111 166 111q89 0 121.5 -71t32.5 -243v-567q0 -171 -33 -242t-123 -71q-43 0 -76 16.5t-48.5 34t-31.5 43.5v-486h-163zM381 870q0 84 -15 119t-55 35t-59 -36.5t-19 -129.5v-557q0 -91 19 -128.5t59 -37.5t55 34.5t15 121.5v579z" />
    <glyph glyph-name="q" unicode="q" horiz-adv-x="608" 
d="M375 -408v486q-16 -26 -31.5 -43.5t-48.5 -34t-76 -16.5q-90 0 -123 71t-33 242v567q0 172 32.5 243t121.5 71q107 0 166 -111l18 94h138v-1569h-164zM375 858q0 93 -19 129.5t-59 36.5t-55 -35t-15 -119v-579q0 -87 15 -121.5t55 -34.5t59 37.5t19 128.5v557z" />
    <glyph glyph-name="r" unicode="r" horiz-adv-x="464" 
d="M70 0v1161h137l18 -94q16 38 57.5 73.5t96.5 35.5q44 0 88 -25l-35 -172q-58 27 -102 27q-54 0 -75.5 -51t-21.5 -179v-776h-163z" />
    <glyph glyph-name="s" unicode="s" horiz-adv-x="581" 
d="M207 289q0 -82 17 -117t65 -35q46 0 66 29.5t20 91.5q0 60 -18.5 107.5t-47.5 79.5t-64.5 61t-71 62t-64.5 73.5t-47.5 104.5t-18.5 145q0 154 64 220.5t188 66.5q128 0 186 -67.5t58 -229.5v-107h-164v94q0 88 -17 122t-65 34q-47 0 -65.5 -30t-18.5 -93q0 -68 18 -119
t47.5 -82.5t64.5 -59t70 -57.5t64.5 -68t47.5 -101t18 -146q0 -151 -60.5 -217.5t-191.5 -66.5q-132 0 -188 71t-56 234v94h164v-94z" />
    <glyph glyph-name="t" unicode="t" horiz-adv-x="417" 
d="M403 -6q-45 -10 -88 -10q-121 0 -166 69t-45 238v719h-92v151h92v287h164v-287h133v-151h-133v-731q0 -84 17.5 -117t74.5 -33q27 0 43 2v-137z" />
    <glyph glyph-name="u" unicode="u" 
d="M403 0l-18 94q-59 -110 -166 -110q-89 0 -121 70.5t-32 242.5v864h163v-870q0 -87 15 -121.5t55 -34.5t59 37.5t19 128.5v860h164v-1161h-138z" />
    <glyph glyph-name="v" unicode="v" horiz-adv-x="563" 
d="M174 0l-158 1161h172l93 -962l94 962h172l-156 -1161h-217z" />
    <glyph glyph-name="w" unicode="w" horiz-adv-x="927" 
d="M553 0l-88 848l-88 -848h-203l-158 1161h172l93 -901l94 901h180l94 -901l92 901h172l-157 -1161h-203z" />
    <glyph glyph-name="x" unicode="x" horiz-adv-x="567" 
d="M399 0l-125 408l-108 -408h-160l182 594l-180 567h162l113 -373l108 373h166l-188 -569l192 -592h-162z" />
    <glyph glyph-name="y" unicode="y" horiz-adv-x="573" 
d="M154 -410l61 338l-203 1233h172l109 -895l98 895h172l-237 -1571h-172z" />
    <glyph glyph-name="z" unicode="z" horiz-adv-x="522" 
d="M20 0v139l291 871h-252v151h441v-112l-295 -895h270v-154h-455z" />
    <glyph glyph-name="braceleft" unicode="{" horiz-adv-x="524" 
d="M496 -348h-142q-89 0 -132.5 57.5t-43.5 161.5v412q0 48 -3.5 82.5t-14.5 68t-30 55t-50 36.5t-74 20v125q51 6 86 29t53 61t25.5 80t7.5 96v412q0 221 176 221h142v-137h-86q-18 0 -30.5 -5.5t-20 -19t-12 -25.5t-6.5 -37.5t-2.5 -41.5t-0.5 -50v-372q0 -115 -42 -181
t-93 -90q48 -16 91.5 -84.5t43.5 -183.5v-369q0 -39 0.5 -56.5t2.5 -43.5t6 -36t12 -22t20.5 -16t30.5 -4h86v-143z" />
    <glyph glyph-name="bar" unicode="|" horiz-adv-x="348" 
d="M90 -451v2048h168v-2048h-168z" />
    <glyph glyph-name="braceright" unicode="}" horiz-adv-x="524" 
d="M346 -129q0 -104 -43.5 -161.5t-132.5 -57.5h-141v143h86q18 0 30 3.5t20 15.5t12 22t6 35t2.5 42t0.5 55v5v369q0 115 44 183.5t92 84.5q-51 24 -93.5 90t-42.5 181v372q0 35 -0.5 50t-2 41.5t-6 38t-12 25.5t-20 19t-30.5 5h-86v137h141q176 0 176 -221v-412
q0 -54 7.5 -96t25.5 -80t53 -61t86 -29v-125q-43 -5 -74 -20t-50 -36.5t-30 -55t-14.5 -68t-3.5 -82.5v-412z" />
    <glyph glyph-name="asciitilde" unicode="~" horiz-adv-x="864" 
d="M819 1169q-48 -88 -110 -130t-123 -42q-46 0 -152.5 44t-163.5 44q-81 0 -123 -79l-102 86q84 159 231 159q63 0 165.5 -41t148.5 -41q38 0 65 18.5t50 61.5z" />
    <glyph glyph-name="nbspace" unicode="&#xa0;" horiz-adv-x="253" 
 />
    <glyph glyph-name="exclamdown" unicode="&#xa1;" horiz-adv-x="321" 
d="M68 -356l36 1218h113l33 -1218h-182zM268 1120q0 -44 -32 -75t-76 -31t-75.5 31t-31.5 75t31.5 76.5t75.5 32.5t76 -32.5t32 -76.5z" />
    <glyph glyph-name="cent" unicode="&#xa2;" horiz-adv-x="593" 
d="M221 0v213q-86 23 -120.5 94.5t-34.5 220.5v545q0 150 34.5 221.5t120.5 94.5v182h164v-182q85 -20 120.5 -91t35.5 -219v-123h-164v117q0 98 -14.5 135t-59.5 37q-18 0 -30.5 -5.5t-20.5 -19t-13 -27.5t-7 -42.5t-2.5 -51t-0.5 -63.5v-506q0 -98 14.5 -135t59.5 -37
t59.5 38t14.5 139v141h164v-150q0 -151 -35 -220.5t-121 -92.5v-213h-164z" />
    <glyph glyph-name="sterling" unicode="&#xa3;" horiz-adv-x="776" 
d="M55 0v168h103v311h-103v156h103v131h-103v156h103v350q0 323 288 323q277 0 277 -323v-109h-168v119q0 80 -33.5 118t-81.5 38t-81 -38t-33 -118v-360h338v-156h-338v-131h338v-156h-338v-311h393v-168h-664z" />
    <glyph glyph-name="currency" unicode="&#xa4;" horiz-adv-x="897" 
d="M711 279l-88 122q-73 -30 -179 -30q-110 0 -170 28l-86 -120l-114 83l82 115q-82 94 -82 283v55q0 186 80 281l-80 116l114 84l86 -120q73 28 170 28q104 0 181 -30l88 122l114 -84l-86 -120q78 -96 78 -277v-55q0 -181 -78 -277l86 -121zM653 829q0 105 -52.5 161.5
t-154.5 56.5t-154 -56.5t-52 -161.5v-84q0 -105 52 -161t154 -56t154.5 56t52.5 161v84z" />
    <glyph glyph-name="yen" unicode="&#xa5;" horiz-adv-x="733" 
d="M449 254v-254h-166v254h-226v156h226v131h-226v155h203l-219 873h170l156 -725l155 725h170l-221 -873h205v-155h-227v-131h227v-156h-227z" />
    <glyph glyph-name="brokenbar" unicode="&#xa6;" horiz-adv-x="352" 
d="M92 762v835h168v-835h-168zM92 -451v834h168v-834h-168z" />
    <glyph glyph-name="section" unicode="&#xa7;" horiz-adv-x="745" 
d="M215 289q0 -82 17 -117t65 -35q46 0 66 29.5t20 91.5q0 60 -18.5 107.5t-47.5 79.5t-64.5 61t-71 62t-64.5 73.5t-47.5 104.5t-18.5 145q0 125 40.5 190t121.5 84q-14 68 -14 135q0 150 62.5 215.5t189.5 65.5t185 -67.5t58 -229.5v-104h-164v92q0 89 -16.5 122t-64.5 33
q-49 0 -68 -28.5t-19 -91.5q0 -66 18.5 -116t47.5 -81.5t64.5 -59.5t71 -59t64.5 -69.5t47.5 -101.5t18.5 -146q0 -122 -39.5 -188.5t-122.5 -86.5q15 -73 15 -133q0 -150 -60.5 -216t-191.5 -66q-132 0 -188 71t-56 234v94h164v-94zM291 1022q-42 -1 -58 -31t-16 -88
q0 -77 24.5 -134t54.5 -85t77 -68.5t73 -72.5q46 4 65 34.5t19 88.5q0 68 -25.5 121.5t-58 82.5t-80.5 72t-75 80z" />
    <glyph glyph-name="dieresis" unicode="&#xa8;" horiz-adv-x="595" 
d="M143 1288q-43 0 -73.5 31.5t-30.5 75.5q0 43 30.5 73.5t73.5 30.5q44 0 74.5 -30.5t30.5 -73.5q0 -44 -30.5 -75.5t-74.5 -31.5zM453 1288q-43 0 -74 31.5t-31 75.5q0 43 31 73.5t74 30.5q44 0 74 -30.5t30 -73.5q0 -45 -30 -76t-74 -31z" />
    <glyph glyph-name="ordfeminine" unicode="&#xaa;" horiz-adv-x="538" 
d="M367 743l-21 93q-16 -30 -29 -48.5t-45 -38.5t-73 -20q-74 0 -117 64t-43 200q0 120 36 182t118 62q93 0 145 -92v133q0 26 -0.5 40t-4.5 37t-11 35t-22 21.5t-36 9.5q-40 0 -53.5 -28.5t-15.5 -79.5h-154q0 58 11 102.5t36 80t71.5 54.5t112.5 19q121 0 170.5 -67.5
t49.5 -219.5v-539h-125zM63 434v146h410v-146h-410zM258 866q34 0 57 28.5t23 92.5q0 109 -78 109q-74 0 -74 -111q0 -119 72 -119z" />
    <glyph glyph-name="guillemotleft" unicode="&#xab;" horiz-adv-x="694" 
d="M182 195l-153 352l153 356h168l-155 -356l155 -352h-168zM463 195l-154 352l154 356h168l-156 -356l156 -352h-168z" />
    <glyph glyph-name="logicalnot" unicode="&#xac;" horiz-adv-x="864" 
d="M637 373v295h-586v151h742v-446h-156z" />
    <glyph glyph-name="uni00AD" unicode="&#xad;" horiz-adv-x="456" 
d="M66 520v156h325v-156h-325z" />
    <glyph glyph-name="macron" unicode="&#xaf;" horiz-adv-x="552" 
d="M39 1309v135h475v-135h-475z" />
    <glyph glyph-name="degree" unicode="&#xb0;" horiz-adv-x="495" 
d="M342 1294q0 38 -28 66.5t-66 28.5q-40 0 -67 -28t-27 -67q0 -41 26.5 -67.5t67.5 -26.5q39 0 66.5 26.5t27.5 67.5zM248 1085q-88 0 -148.5 60.5t-60.5 148.5t60.5 147.5t148.5 59.5t147.5 -59.5t59.5 -147.5t-59.5 -148.5t-147.5 -60.5z" />
    <glyph glyph-name="plusminus" unicode="&#xb1;" horiz-adv-x="864" 
d="M354 397v295h-293v152h293v295h156v-295h293v-152h-293v-295h-156zM61 125v151h742v-151h-742z" />
    <glyph glyph-name="twosuperior" unicode="&#xb2;" horiz-adv-x="497" 
d="M63 817v109q0 46 24.5 91t60 81.5t71 71.5t60 76t24.5 81v72q0 71 -53 71t-53 -71v-88h-134v100q0 81 48 126.5t139 45.5q94 0 142 -46t48 -126v-94q0 -47 -23 -93t-55 -82t-64.5 -70t-55.5 -70t-23 -68h205v-117h-361z" />
    <glyph glyph-name="threesuperior" unicode="&#xb3;" horiz-adv-x="489" 
d="M432 985q0 -92 -45.5 -137t-142.5 -45q-98 0 -143.5 44t-45.5 132v55h135v-49q0 -72 54 -72q51 0 51 88v80q0 64 -78 64q-15 0 -31 -2v110q14 -2 29 -2q36 0 58 12.5t22 49.5v86q0 71 -51 71q-54 0 -54 -71v-53h-135v57q0 178 187 178q190 0 190 -178v-70
q0 -52 -16.5 -82.5t-63.5 -46.5q80 -28 80 -145v-74z" />
    <glyph glyph-name="acute" unicode="&#xb4;" horiz-adv-x="253" 
d="M0 1309l102 237h187l-160 -237h-129z" />
    <glyph glyph-name="mu" unicode="&#xb5;" horiz-adv-x="671" 
d="M96 -408v1569h164v-887q0 -74 16 -106.5t54 -32.5q40 0 59 37.5t19 128.5v860h163v-1161h-135l-18 94q-17 -38 -47.5 -69t-67.5 -31q-16 0 -43 10v-412h-164z" />
    <glyph glyph-name="paragraph" unicode="&#xb6;" horiz-adv-x="909" 
d="M655 -178v1585h-120v-1587h-168v684h-45q-63 0 -105.5 7.5t-78 28t-55 57.5t-30 94t-10.5 140v410q0 103 15 167.5t51 100t84.5 48t128.5 12.5h481v-1747h-148z" />
    <glyph glyph-name="periodcentered" unicode="&#xb7;" horiz-adv-x="339" 
d="M168 473q-44 0 -75.5 31.5t-31.5 75.5t31.5 76t75.5 32t76 -32t32 -76t-32 -75.5t-76 -31.5z" />
    <glyph glyph-name="cedilla" unicode="&#xb8;" horiz-adv-x="421" 
d="M76 -246q31 -18 71 -18q35 0 56.5 18.5t21.5 44.5t-21.5 45t-62.5 19q-14 0 -20 -2l35 139h114l-22 -94q54 0 88.5 -37t34.5 -88q0 -60 -50.5 -105t-138.5 -45q-72 0 -131 25z" />
    <glyph glyph-name="onesuperior" unicode="&#xb9;" horiz-adv-x="362" 
d="M156 817v610l-127 -59v127l149 76h115v-754h-137z" />
    <glyph glyph-name="ordmasculine" unicode="&#xba;" horiz-adv-x="534" 
d="M494 1014q0 -155 -55.5 -220t-172.5 -65q-118 0 -172.5 65t-54.5 220v270q0 155 54.5 220t172.5 65q117 0 172.5 -65t55.5 -220v-270zM66 434v146h409v-146h-409zM340 1241q0 98 -14.5 136t-59.5 38t-59 -38t-14 -136v-184q0 -100 13 -137t60 -37q39 0 56.5 30.5
t17.5 104.5v223z" />
    <glyph glyph-name="guillemotright" unicode="&#xbb;" horiz-adv-x="694" 
d="M176 195l156 352l-156 356h168l154 -356l-154 -352h-168zM457 195l155 352l-155 356h168l153 -356l-153 -352h-168z" />
    <glyph glyph-name="onequarter" unicode="&#xbc;" horiz-adv-x="991" 
d="M211 0l422 1569h135l-422 -1569h-135zM158 817v610l-127 -59v127l149 76h115v-754h-137zM760 0v172h-209v111l141 471h195v-471h67v-111h-67v-172h-127zM760 641l-88 -358h88v358z" />
    <glyph glyph-name="onehalf" unicode="&#xbd;" horiz-adv-x="1044" 
d="M211 0l422 1569h135l-422 -1569h-135zM158 817v610l-127 -59v127l149 76h115v-754h-137zM623 0v109q0 46 24.5 91t59.5 81.5t70.5 71.5t60 76t24.5 81v72q0 71 -53 71t-53 -71v-88h-133v100q0 81 47.5 126.5t138.5 45.5q94 0 142 -46t48 -126v-94q0 -47 -23 -93
t-55.5 -82t-64.5 -70t-55 -70t-23 -68h205v-117h-360z" />
    <glyph glyph-name="threequarters" unicode="&#xbe;" horiz-adv-x="1069" 
d="M293 0l422 1569h135l-422 -1569h-135zM840 0v172h-209v111l141 471h195v-471h67v-111h-67v-172h-127zM840 641l-88 -358h88v358zM420 985q0 -92 -46 -137t-143 -45q-98 0 -143 44t-45 132v55h135v-49q0 -72 53 -72q52 0 52 88v80q0 64 -78 64q-15 0 -31 -2v110
q14 -2 29 -2q36 0 58 12.5t22 49.5v86q0 71 -52 71q-53 0 -53 -71v-53h-135v57q0 178 186 178q191 0 191 -178v-70q0 -52 -16.5 -82.5t-63.5 -46.5q80 -28 80 -145v-74z" />
    <glyph glyph-name="questiondown" unicode="&#xbf;" horiz-adv-x="636" 
d="M602 -20q0 -190 -70 -277.5t-219 -87.5q-143 0 -209.5 83.5t-66.5 272.5v152q0 66 4.5 112t18 91t38 74t65.5 50t99 29l21 383h127l20 -532q-9 4 -39 4q-26 0 -54 -5.5t-59.5 -18.5t-52 -42t-20.5 -69v-273q0 -81 32.5 -118t84.5 -37q56 0 84 46.5t28 153.5v179h168v-170
zM449 1120q0 -44 -32.5 -76t-76.5 -32t-75.5 32t-31.5 76t31.5 75.5t75.5 31.5t76.5 -31.5t32.5 -75.5z" />
    <glyph glyph-name="Agrave" unicode="&#xc0;" horiz-adv-x="665" 
d="M489 0l-43 369h-227l-43 -369h-168l211 1569h225l213 -1569h-168zM332 1337l-92 -811h186zM289 1716l-162 238h186l105 -238h-129z" />
    <glyph glyph-name="Aacute" unicode="&#xc1;" horiz-adv-x="665" 
d="M489 0l-43 369h-227l-43 -369h-168l211 1569h225l213 -1569h-168zM332 1337l-92 -811h186zM250 1716l102 238h187l-160 -238h-129z" />
    <glyph glyph-name="Acircumflex" unicode="&#xc2;" horiz-adv-x="665" 
d="M489 0l-43 369h-227l-43 -369h-168l211 1569h225l213 -1569h-168zM332 1337l-92 -811h186zM418 1716l-86 144l-78 -144h-139l135 248h164l139 -248h-135z" />
    <glyph glyph-name="Atilde" unicode="&#xc3;" horiz-adv-x="665" 
d="M489 0l-43 369h-227l-43 -369h-168l211 1569h225l213 -1569h-168zM332 1337l-92 -811h186zM561 1878q-6 -74 -42.5 -118t-96.5 -44q-31 0 -77 18.5t-69 18.5q-20 0 -30.5 -7.5t-14.5 -29.5h-122q0 36 13 71.5t45 63t77 27.5q32 0 80.5 -17.5t66.5 -17.5q40 0 43 35h127z
" />
    <glyph glyph-name="Adieresis" unicode="&#xc4;" horiz-adv-x="665" 
d="M489 0l-43 369h-227l-43 -369h-168l211 1569h225l213 -1569h-168zM332 1337l-92 -811h186zM180 1696q-43 0 -73.5 31t-30.5 75q0 43 30.5 74t73.5 31q44 0 74.5 -31t30.5 -74q0 -44 -30.5 -75t-74.5 -31zM489 1696q-43 0 -73.5 31t-30.5 75q0 43 30.5 74t73.5 31
q44 0 74.5 -31t30.5 -74q0 -44 -30.5 -75t-74.5 -31z" />
    <glyph glyph-name="Aring" unicode="&#xc5;" horiz-adv-x="665" 
d="M489 0l-43 369h-227l-43 -369h-168l211 1569h225l213 -1569h-168zM332 1337l-92 -811h186zM403 1817q0 29 -20 48t-49 19t-48.5 -19t-19.5 -48t19.5 -49.5t48.5 -20.5t49 20.5t20 49.5zM334 1661q-66 0 -110 45t-44 111t44 109.5t110 43.5t110.5 -43.5t44.5 -109.5
t-44.5 -111t-110.5 -45z" />
    <glyph glyph-name="AE" unicode="&#xc6;" horiz-adv-x="1013" 
d="M473 0v369h-227l-92 -369h-166l401 1569h574v-164h-322v-533h307v-163h-307v-547h322v-162h-490zM473 1315l-186 -785h186v785z" />
    <glyph glyph-name="Ccedilla" unicode="&#xc7;" horiz-adv-x="690" 
d="M231 -246q31 -18 68 -18q39 0 59.5 18t20.5 45q0 26 -20.5 45t-61.5 19q-15 0 -21 -2l29 114q-235 27 -235 326v967q0 327 286 327q279 0 279 -321v-252h-168v260q0 79 -33 117.5t-82 38.5q-51 0 -82.5 -38t-31.5 -118v-995q0 -81 31.5 -118.5t82.5 -37.5q49 0 82 38
t33 118v237h168v-223q0 -290 -215 -321l-19 -74q54 0 88.5 -37t34.5 -88q0 -60 -49.5 -105t-136.5 -45q-70 0 -133 25z" />
    <glyph glyph-name="Egrave" unicode="&#xc8;" horiz-adv-x="622" 
d="M80 0v1569h489v-164h-321v-533h307v-163h-307v-547h321v-162h-489zM291 1716l-162 238h186l105 -238h-129z" />
    <glyph glyph-name="Eacute" unicode="&#xc9;" horiz-adv-x="622" 
d="M80 0v1569h489v-164h-321v-533h307v-163h-307v-547h321v-162h-489zM227 1716l103 238h186l-160 -238h-129z" />
    <glyph glyph-name="Ecircumflex" unicode="&#xca;" horiz-adv-x="622" 
d="M80 0v1569h489v-164h-321v-533h307v-163h-307v-547h321v-162h-489zM403 1716l-86 144l-77 -144h-140l136 248h163l140 -248h-136z" />
    <glyph glyph-name="Edieresis" unicode="&#xcb;" horiz-adv-x="622" 
d="M82 0v1569h489v-164h-321v-533h307v-163h-307v-547h321v-162h-489zM166 1696q-43 0 -74 31t-31 75q0 43 31 74t74 31q44 0 74 -31t30 -74q0 -44 -30 -75t-74 -31zM475 1696q-43 0 -73.5 31t-30.5 75q0 43 30.5 74t73.5 31q44 0 74.5 -31t30.5 -74q0 -44 -30.5 -75
t-74.5 -31z" />
    <glyph glyph-name="Igrave" unicode="&#xcc;" horiz-adv-x="329" 
d="M82 0v1569h168v-1569h-168zM121 1716l-162 238h186l105 -238h-129z" />
    <glyph glyph-name="Iacute" unicode="&#xcd;" horiz-adv-x="329" 
d="M80 0v1569h168v-1569h-168zM80 1716l102 238h187l-160 -238h-129z" />
    <glyph glyph-name="Icircumflex" unicode="&#xce;" horiz-adv-x="329" 
d="M82 0v1569h168v-1569h-168zM248 1716l-86 144l-78 -144h-139l135 248h164l139 -248h-135z" />
    <glyph glyph-name="Idieresis" unicode="&#xcf;" horiz-adv-x="329" 
d="M82 0v1569h168v-1569h-168zM10 1696q-43 0 -73.5 31t-30.5 75q0 43 30.5 74t73.5 31q44 0 74.5 -31t30.5 -74q0 -44 -30.5 -75t-74.5 -31zM319 1696q-43 0 -73.5 31t-30.5 75q0 43 30.5 74t73.5 31q44 0 74.5 -31t30.5 -74q0 -44 -30.5 -75t-74.5 -31z" />
    <glyph glyph-name="Eth" unicode="&#xd0;" horiz-adv-x="710" 
d="M82 0v711h-78v159h78v699h274q143 0 212 -72t69 -256v-913q0 -184 -69 -256t-212 -72h-274zM469 1255q0 85 -27 120.5t-88 35.5h-104v-541h117v-159h-117v-553h104q61 0 88 35t27 120v942z" />
    <glyph glyph-name="Ntilde" unicode="&#xd1;" horiz-adv-x="802" 
d="M520 0l-276 1071l4 -1071h-168v1569h192l285 -1090l-4 1090h168v-1569h-201zM639 1878q-6 -74 -42.5 -118t-96.5 -44q-31 0 -77 18.5t-69 18.5q-20 0 -30.5 -7.5t-14.5 -29.5h-123q0 36 13 71.5t45.5 63t77.5 27.5q32 0 80.5 -17.5t66.5 -17.5q40 0 43 35h127z" />
    <glyph glyph-name="Ograve" unicode="&#xd2;" horiz-adv-x="710" 
d="M72 1268q0 327 288 327q133 0 205 -75.5t72 -251.5v-967q0 -91 -22 -156.5t-61.5 -102t-89 -53t-110.5 -16.5q-282 0 -282 328v967zM469 1282q0 79 -33 117.5t-82 38.5q-51 0 -82.5 -38t-31.5 -118v-995q0 -81 31.5 -118.5t82.5 -37.5q49 0 82 38t33 118v995zM313 1716
l-161 238h186l104 -238h-129z" />
    <glyph glyph-name="Oacute" unicode="&#xd3;" horiz-adv-x="710" 
d="M72 1268q0 327 288 327q133 0 205 -75.5t72 -251.5v-967q0 -91 -22 -156.5t-61.5 -102t-89 -53t-110.5 -16.5q-282 0 -282 328v967zM469 1282q0 79 -33 117.5t-82 38.5q-51 0 -82.5 -38t-31.5 -118v-995q0 -81 31.5 -118.5t82.5 -37.5q49 0 82 38t33 118v995zM272 1716
l103 238h186l-160 -238h-129z" />
    <glyph glyph-name="Ocircumflex" unicode="&#xd4;" horiz-adv-x="710" 
d="M72 1268q0 327 288 327q133 0 205 -75.5t72 -251.5v-967q0 -91 -22 -156.5t-61.5 -102t-89 -53t-110.5 -16.5q-282 0 -282 328v967zM469 1282q0 79 -33 117.5t-82 38.5q-51 0 -82.5 -38t-31.5 -118v-995q0 -81 31.5 -118.5t82.5 -37.5q49 0 82 38t33 118v995zM440 1716
l-86 144l-78 -144h-139l135 248h164l139 -248h-135z" />
    <glyph glyph-name="Otilde" unicode="&#xd5;" horiz-adv-x="710" 
d="M72 1268q0 327 288 327q133 0 205 -75.5t72 -251.5v-967q0 -91 -22 -156.5t-61.5 -102t-89 -53t-110.5 -16.5q-282 0 -282 328v967zM469 1282q0 79 -33 117.5t-82 38.5q-51 0 -82.5 -38t-31.5 -118v-995q0 -81 31.5 -118.5t82.5 -37.5q49 0 82 38t33 118v995zM582 1878
q-6 -74 -43 -118t-97 -44q-31 0 -76.5 18.5t-68.5 18.5q-20 0 -30.5 -7.5t-14.5 -29.5h-123q0 36 13 71.5t45 63t77 27.5q32 0 81 -17.5t67 -17.5q40 0 43 35h127z" />
    <glyph glyph-name="Odieresis" unicode="&#xd6;" horiz-adv-x="710" 
d="M72 1268q0 327 288 327q133 0 205 -75.5t72 -251.5v-967q0 -91 -22 -156.5t-61.5 -102t-89 -53t-110.5 -16.5q-282 0 -282 328v967zM469 1282q0 79 -33 117.5t-82 38.5q-51 0 -82.5 -38t-31.5 -118v-995q0 -81 31.5 -118.5t82.5 -37.5q49 0 82 38t33 118v995zM201 1696
q-43 0 -74 31t-31 75q0 43 31 74t74 31q44 0 74 -31t30 -74q0 -44 -30 -75t-74 -31zM510 1696q-43 0 -73.5 31t-30.5 75q0 43 30.5 74t73.5 31q44 0 74 -31t30 -74q0 -44 -30 -75t-74 -31z" />
    <glyph glyph-name="multiply" unicode="&#xd7;" horiz-adv-x="864" 
d="M434 635l-209 -209l-110 111l209 208l-207 207l106 107l207 -207l209 209l111 -111l-209 -209l207 -206l-107 -107z" />
    <glyph glyph-name="Oslash" unicode="&#xd8;" horiz-adv-x="710" 
d="M72 1268q0 327 282 327q55 0 88 -8l15 88h75l-18 -114q123 -76 123 -293v-967q0 -175 -76.5 -251.5t-204.5 -76.5q-39 0 -88 11l-14 -93h-76l19 119q-125 77 -125 291v967zM240 223l176 1194q-27 21 -62 21q-51 0 -82.5 -38t-31.5 -118v-1059zM469 1329l-176 -1182
q26 -16 59 -16q52 0 84.5 37.5t32.5 118.5v1042z" />
    <glyph glyph-name="Ugrave" unicode="&#xd9;" horiz-adv-x="720" 
d="M475 1569h168v-1268q0 -91 -22 -156.5t-61.5 -102t-89 -53t-110.5 -16.5q-282 0 -282 328v1268h168v-1282q0 -81 31.5 -118.5t82.5 -37.5q49 0 82 38t33 118v1282zM309 1716l-162 238h187l104 -238h-129z" />
    <glyph glyph-name="Uacute" unicode="&#xda;" horiz-adv-x="720" 
d="M475 1569h168v-1268q0 -91 -22 -156.5t-61.5 -102t-89 -53t-110.5 -16.5q-282 0 -282 328v1268h168v-1282q0 -81 31.5 -118.5t82.5 -37.5q49 0 82 38t33 118v1282zM281 1716l102 238h186l-159 -238h-129z" />
    <glyph glyph-name="Ucircumflex" unicode="&#xdb;" horiz-adv-x="720" 
d="M475 1569h168v-1268q0 -91 -22 -156.5t-61.5 -102t-89 -53t-110.5 -16.5q-282 0 -282 328v1268h168v-1282q0 -81 31.5 -118.5t82.5 -37.5q49 0 82 38t33 118v1282zM432 1716l-86 144l-78 -144h-139l135 248h164l139 -248h-135z" />
    <glyph glyph-name="Udieresis" unicode="&#xdc;" horiz-adv-x="720" 
d="M475 1569h168v-1268q0 -91 -22 -156.5t-61.5 -102t-89 -53t-110.5 -16.5q-282 0 -282 328v1268h168v-1282q0 -81 31.5 -118.5t82.5 -37.5q49 0 82 38t33 118v1282zM203 1696q-43 0 -74 31t-31 75q0 43 31 74t74 31q44 0 74 -31t30 -74q0 -44 -30 -75t-74 -31zM512 1696
q-43 0 -73.5 31t-30.5 75q0 43 30.5 74t73.5 31q44 0 74 -31t30 -74q0 -44 -30 -75t-74 -31z" />
    <glyph glyph-name="Yacute" unicode="&#xdd;" horiz-adv-x="667" 
d="M250 0v565l-242 1004h170l154 -738l157 738h170l-243 -1004v-565h-166zM256 1716l102 238h187l-160 -238h-129z" />
    <glyph glyph-name="Thorn" unicode="&#xde;" horiz-adv-x="675" 
d="M80 0v1569h168v-334h98q74 0 125 -15.5t89.5 -53t56.5 -104t18 -165.5v-221q0 -130 -33 -205.5t-91.5 -104t-154.5 -28.5h-108v-338h-168zM467 915q0 85 -27 120.5t-88 35.5h-104v-571h104q61 0 88 35t27 120v260z" />
    <glyph glyph-name="germandbls" unicode="&#xdf;" horiz-adv-x="638" 
d="M287 139q16 -2 35 -2q29 0 48 7.5t29.5 18.5t15.5 34.5t6 42t1 55.5v330q0 241 -115 260v139q35 8 59 30.5t35.5 56.5t16 68t4.5 78v46q0 124 -94 124q-95 0 -95 -124v-1303h-163v1298q0 146 64 214.5t194 68.5t194 -68.5t64 -214.5v-69q0 -121 -44 -186t-112 -85
q156 -31 156 -247v-420q0 -148 -48 -227.5t-167 -79.5q-39 0 -84 10v145z" />
    <glyph glyph-name="agrave" unicode="&#xe0;" horiz-adv-x="595" 
d="M391 0l-18 94q-52 -110 -164 -110q-53 0 -85.5 26t-51.5 100.5t-19 204.5v29q0 170 36 239.5t122 69.5q57 0 92.5 -24t61.5 -70v309q0 87 -16 121.5t-58 34.5t-58 -34.5t-16 -121.5v-77h-164v61q0 169 52 247.5t188 78.5t185.5 -80t49.5 -262v-836h-137zM365 356
q0 73 -17.5 107.5t-58.5 34.5q-45 0 -58.5 -39t-13.5 -144v-30q0 -81 15 -114.5t55 -33.5q78 0 78 154v65zM266 1309l-162 237h187l104 -237h-129z" />
    <glyph glyph-name="aacute" unicode="&#xe1;" horiz-adv-x="595" 
d="M391 0l-18 94q-52 -110 -164 -110q-53 0 -85.5 26t-51.5 100.5t-19 204.5v29q0 170 36 239.5t122 69.5q57 0 92.5 -24t61.5 -70v309q0 87 -16 121.5t-58 34.5t-58 -34.5t-16 -121.5v-77h-164v61q0 169 52 247.5t188 78.5t185.5 -80t49.5 -262v-836h-137zM365 356
q0 73 -17.5 107.5t-58.5 34.5q-45 0 -58.5 -39t-13.5 -144v-30q0 -81 15 -114.5t55 -33.5q78 0 78 154v65zM201 1309l102 237h186l-159 -237h-129z" />
    <glyph glyph-name="acircumflex" unicode="&#xe2;" horiz-adv-x="595" 
d="M391 0l-18 94q-52 -110 -164 -110q-53 0 -85.5 26t-51.5 100.5t-19 204.5v29q0 170 36 239.5t122 69.5q57 0 92.5 -24t61.5 -70v309q0 87 -16 121.5t-58 34.5t-58 -34.5t-16 -121.5v-77h-164v61q0 169 52 247.5t188 78.5t185.5 -80t49.5 -262v-836h-137zM365 356
q0 73 -17.5 107.5t-58.5 34.5q-45 0 -58.5 -39t-13.5 -144v-30q0 -81 15 -114.5t55 -33.5q78 0 78 154v65zM375 1309l-86 143l-78 -143h-139l135 247h164l139 -247h-135z" />
    <glyph glyph-name="atilde" unicode="&#xe3;" horiz-adv-x="595" 
d="M391 0l-18 94q-52 -110 -164 -110q-53 0 -85.5 26t-51.5 100.5t-19 204.5v29q0 170 36 239.5t122 69.5q57 0 92.5 -24t61.5 -70v309q0 87 -16 121.5t-58 34.5t-58 -34.5t-16 -121.5v-77h-164v61q0 169 52 247.5t188 78.5t185.5 -80t49.5 -262v-836h-137zM365 356
q0 73 -17.5 107.5t-58.5 34.5q-45 0 -58.5 -39t-13.5 -144v-30q0 -81 15 -114.5t55 -33.5q78 0 78 154v65zM518 1470q-6 -74 -42.5 -117.5t-96.5 -43.5q-31 0 -77 18.5t-69 18.5q-20 0 -30.5 -7.5t-14.5 -29.5h-122q0 36 13 71t45 62.5t77 27.5q32 0 80.5 -17t66.5 -17
q40 0 43 34h127z" />
    <glyph glyph-name="adieresis" unicode="&#xe4;" horiz-adv-x="593" 
d="M391 0l-18 94q-52 -110 -164 -110q-53 0 -85.5 26t-51.5 100.5t-19 204.5v29q0 170 36 239.5t122 69.5q57 0 92.5 -24t61.5 -70v309q0 87 -16 121.5t-58 34.5t-58 -34.5t-16 -121.5v-77h-164v61q0 169 52 247.5t188 78.5t185.5 -80t49.5 -262v-836h-137zM365 356
q0 73 -17.5 107.5t-58.5 34.5q-45 0 -58.5 -39t-13.5 -144v-30q0 -81 15 -114.5t55 -33.5q78 0 78 154v65zM137 1288q-43 0 -73.5 31.5t-30.5 75.5q0 43 30.5 73.5t73.5 30.5q44 0 74.5 -30.5t30.5 -73.5q0 -44 -30.5 -75.5t-74.5 -31.5zM446 1288q-43 0 -73.5 31.5
t-30.5 75.5q0 43 30.5 73.5t73.5 30.5q44 0 74.5 -30.5t30.5 -73.5q0 -44 -30.5 -75.5t-74.5 -31.5z" />
    <glyph glyph-name="aring" unicode="&#xe5;" horiz-adv-x="595" 
d="M391 0l-18 94q-52 -110 -164 -110q-53 0 -85.5 26t-51.5 100.5t-19 204.5v29q0 170 36 239.5t122 69.5q57 0 92.5 -24t61.5 -70v309q0 87 -16 121.5t-58 34.5t-58 -34.5t-16 -121.5v-77h-164v61q0 169 52 247.5t188 78.5t185.5 -80t49.5 -262v-836h-137zM365 356
q0 73 -17.5 107.5t-58.5 34.5q-45 0 -58.5 -39t-13.5 -144v-30q0 -81 15 -114.5t55 -33.5q78 0 78 154v65zM360 1419q0 29 -20 48.5t-49 19.5t-48.5 -19.5t-19.5 -48.5t19.5 -49t48.5 -20t49 20t20 49zM291 1264q-66 0 -110 44.5t-44 110.5t44 110t110 44t110.5 -44
t44.5 -110t-44.5 -110.5t-110.5 -44.5z" />
    <glyph glyph-name="ae" unicode="&#xe6;" horiz-adv-x="892" 
d="M840 295q0 -170 -57 -240.5t-181 -70.5q-170 0 -217 135q-35 -69 -73.5 -102t-104.5 -33q-52 0 -84 27t-51 103t-19 208v14q0 176 35.5 246.5t122.5 70.5q57 0 92.5 -24t61.5 -70v322q0 80 -16.5 111.5t-57.5 31.5q-42 0 -58 -34.5t-16 -121.5v-77h-164v90
q0 152 54.5 224.5t185.5 72.5q103 0 153 -56q53 56 156 56q125 0 181.5 -71t56.5 -249v-344h-312v-182q0 -37 0.5 -57.5t2.5 -47t7 -40t13 -27t20.5 -18.5t30.5 -5q43 0 58.5 36.5t15.5 127.5v82h164v-88zM676 889q0 71 -17.5 103t-56.5 32q-45 0 -59.5 -38t-14.5 -136v-184
h148v223zM365 356q0 73 -17.5 107.5t-58.5 34.5q-45 0 -58.5 -39t-13.5 -144v-30q0 -81 15 -114.5t55 -33.5q78 0 78 154v65z" />
    <glyph glyph-name="ccedilla" unicode="&#xe7;" horiz-adv-x="577" 
d="M166 -246q31 -18 70 -18q37 0 58 18.5t21 44.5t-21.5 45t-62.5 19q-14 0 -20 -2l31 125q-95 12 -142 78.5t-47 203.5v625q0 153 59 219t179 66q118 0 177.5 -65.5t59.5 -219.5v-158h-163v154q0 71 -17.5 103t-56.5 32q-41 0 -57.5 -31t-16.5 -104v-617q0 -73 16.5 -104
t57.5 -31q39 0 56.5 32t17.5 103v183h163v-187q0 -130 -43 -195t-127 -83l-20 -84q54 0 88.5 -37t34.5 -88q0 -60 -50 -105t-137 -45q-74 0 -133 25z" />
    <glyph glyph-name="egrave" unicode="&#xe8;" horiz-adv-x="589" 
d="M537 307q0 -179 -55.5 -251t-182.5 -72t-182.5 73t-55.5 254v537q0 181 56.5 255.5t183.5 74.5t181.5 -74.5t54.5 -261.5v-328h-312v-242q0 -73 16.5 -104t57.5 -31q39 0 56.5 32t17.5 103v111h164v-76zM373 850q0 99 -14.5 136.5t-59.5 37.5q-47 0 -60.5 -36.5
t-13.5 -137.5v-184h148v184zM262 1309l-162 237h187l104 -237h-129z" />
    <glyph glyph-name="eacute" unicode="&#xe9;" horiz-adv-x="589" 
d="M537 307q0 -179 -55.5 -251t-182.5 -72t-182.5 73t-55.5 254v537q0 181 56.5 255.5t183.5 74.5t181.5 -74.5t54.5 -261.5v-328h-312v-242q0 -73 16.5 -104t57.5 -31q39 0 56.5 32t17.5 103v111h164v-76zM373 850q0 99 -14.5 136.5t-59.5 37.5q-47 0 -60.5 -36.5
t-13.5 -137.5v-184h148v184zM205 1309l102 237h187l-160 -237h-129z" />
    <glyph glyph-name="ecircumflex" unicode="&#xea;" horiz-adv-x="589" 
d="M537 307q0 -179 -55.5 -251t-182.5 -72t-182.5 73t-55.5 254v537q0 181 56.5 255.5t183.5 74.5t181.5 -74.5t54.5 -261.5v-328h-312v-242q0 -73 16.5 -104t57.5 -31q39 0 56.5 32t17.5 103v111h164v-76zM373 850q0 99 -14.5 136.5t-59.5 37.5q-47 0 -60.5 -36.5
t-13.5 -137.5v-184h148v184zM381 1309l-86 143l-78 -143h-139l135 247h164l139 -247h-135z" />
    <glyph glyph-name="edieresis" unicode="&#xeb;" horiz-adv-x="589" 
d="M537 307q0 -179 -55.5 -251t-182.5 -72t-182.5 73t-55.5 254v537q0 181 56.5 255.5t183.5 74.5t181.5 -74.5t54.5 -261.5v-328h-312v-242q0 -73 16.5 -104t57.5 -31q39 0 56.5 32t17.5 103v111h164v-76zM373 850q0 99 -14.5 136.5t-59.5 37.5q-47 0 -60.5 -36.5
t-13.5 -137.5v-184h148v184zM143 1288q-43 0 -73.5 31.5t-30.5 75.5q0 43 30.5 73.5t73.5 30.5q44 0 74.5 -30.5t30.5 -73.5q0 -44 -30.5 -75.5t-74.5 -31.5zM453 1288q-43 0 -74 31.5t-31 75.5q0 43 31 73.5t74 30.5q44 0 74 -30.5t30 -73.5q0 -45 -30 -76t-74 -31z" />
    <glyph glyph-name="igrave" unicode="&#xec;" horiz-adv-x="301" 
d="M111 1309l-162 237h186l105 -237h-129zM68 0v1161h163v-1161h-163z" />
    <glyph glyph-name="iacute" unicode="&#xed;" horiz-adv-x="301" 
d="M63 1309l103 237h186l-159 -237h-130zM68 0v1161h163v-1161h-163z" />
    <glyph glyph-name="icircumflex" unicode="&#xee;" horiz-adv-x="301" 
d="M68 0v1161h163v-1161h-163zM233 1309l-86 143l-77 -143h-140l136 247h163l140 -247h-136z" />
    <glyph glyph-name="idieresis" unicode="&#xef;" horiz-adv-x="301" 
d="M-4 1288q-43 0 -74 31.5t-31 75.5q0 43 31 73.5t74 30.5q44 0 74 -30.5t30 -73.5q0 -45 -30 -76t-74 -31zM305 1288q-43 0 -73.5 31.5t-30.5 75.5q0 43 30.5 73.5t73.5 30.5q44 0 74.5 -30.5t30.5 -73.5q0 -44 -30.5 -75.5t-74.5 -31.5zM68 0v1161h163v-1161h-163z" />
    <glyph glyph-name="eth" unicode="&#xf0;" horiz-adv-x="604" 
d="M63 922q0 258 152 258q57 0 103 -33.5t61 -75.5q-5 104 -20.5 164.5t-47.5 97.5l-80 -78l-51 52l74 73q-62 37 -133 54l41 127q121 -22 200 -74l78 80l52 -51l-72 -72q66 -65 92.5 -177.5t26.5 -312.5v-655q0 -171 -56 -243t-182 -72q-119 0 -178.5 65t-59.5 209v664z
M375 868q0 158 -78 158q-70 0 -70 -137v-637q0 -115 74 -115t74 115v616z" />
    <glyph glyph-name="ntilde" unicode="&#xf1;" 
d="M381 0v870q0 84 -15 119t-55 35t-59 -36.5t-19 -129.5v-858h-163v1161h137l18 -94q59 111 166 111q89 0 121.5 -71t32.5 -243v-864h-164zM530 1470q-6 -74 -42.5 -117.5t-96.5 -43.5q-31 0 -76.5 18.5t-68.5 18.5q-20 0 -30.5 -7.5t-14.5 -29.5h-123q0 36 13 71t45 62.5
t77 27.5q32 0 80.5 -17t66.5 -17q40 0 43 34h127z" />
    <glyph glyph-name="ograve" unicode="&#xf2;" horiz-adv-x="600" 
d="M537 268q0 -154 -60 -219t-178 -65q-120 0 -179 65.5t-59 218.5v625q0 153 59 219t179 66q118 0 178 -65.5t60 -219.5v-625zM373 889q0 73 -17.5 104t-58.5 31q-46 0 -59 -40t-13 -148v-564q0 -73 16.5 -104t57.5 -31q39 0 56.5 32t17.5 103v617zM264 1309l-162 237h187
l104 -237h-129z" />
    <glyph glyph-name="oacute" unicode="&#xf3;" horiz-adv-x="600" 
d="M537 268q0 -154 -60 -219t-178 -65q-120 0 -179 65.5t-59 218.5v625q0 153 59 219t179 66q118 0 178 -65.5t60 -219.5v-625zM373 889q0 73 -17.5 104t-58.5 31q-46 0 -59 -40t-13 -148v-564q0 -73 16.5 -104t57.5 -31q39 0 56.5 32t17.5 103v617zM205 1309l102 237h187
l-160 -237h-129z" />
    <glyph glyph-name="ocircumflex" unicode="&#xf4;" horiz-adv-x="600" 
d="M537 268q0 -154 -60 -219t-178 -65q-120 0 -179 65.5t-59 218.5v625q0 153 59 219t179 66q118 0 178 -65.5t60 -219.5v-625zM373 889q0 73 -17.5 104t-58.5 31q-46 0 -59 -40t-13 -148v-564q0 -73 16.5 -104t57.5 -31q39 0 56.5 32t17.5 103v617zM383 1309l-86 143
l-78 -143h-139l135 247h164l139 -247h-135z" />
    <glyph glyph-name="otilde" unicode="&#xf5;" horiz-adv-x="598" 
d="M535 268q0 -154 -60 -219t-178 -65q-120 0 -179 65.5t-59 218.5v625q0 153 59 219t179 66q118 0 178 -65.5t60 -219.5v-625zM371 889q0 73 -17.5 104t-58.5 31q-46 0 -59 -40t-13 -148v-564q0 -73 16.5 -104t57.5 -31q39 0 56.5 32t17.5 103v617zM522 1470
q-6 -74 -42.5 -117.5t-96.5 -43.5q-31 0 -76.5 18.5t-68.5 18.5q-20 0 -30.5 -7.5t-14.5 -29.5h-123q0 36 13 71t45 62.5t77 27.5q32 0 80.5 -17t66.5 -17q40 0 43 34h127z" />
    <glyph glyph-name="odieresis" unicode="&#xf6;" horiz-adv-x="598" 
d="M537 268q0 -154 -60 -219t-178 -65q-120 0 -179 65.5t-59 218.5v625q0 153 59 219t179 66q118 0 178 -65.5t60 -219.5v-625zM373 889q0 73 -17.5 104t-58.5 31q-46 0 -59 -40t-13 -148v-564q0 -73 16.5 -104t57.5 -31q39 0 56.5 32t17.5 103v617zM143 1288
q-43 0 -73.5 31.5t-30.5 75.5q0 43 30.5 73.5t73.5 30.5q44 0 74.5 -30.5t30.5 -73.5q0 -44 -30.5 -75.5t-74.5 -31.5zM453 1288q-43 0 -74 31.5t-31 75.5q0 43 31 73.5t74 30.5q44 0 74 -30.5t30 -73.5q0 -45 -30 -76t-74 -31z" />
    <glyph glyph-name="divide" unicode="&#xf7;" horiz-adv-x="864" 
d="M561 291q-44 0 -75 31t-31 75q0 45 31 77t75 32t76.5 -32.5t32.5 -76.5t-32 -75t-77 -31zM561 979q-44 0 -75 31t-31 75q0 45 31 77t75 32t76.5 -32.5t32.5 -76.5t-32 -75t-77 -31zM193 668v151h741v-151h-741z" />
    <glyph glyph-name="oslash" unicode="&#xf8;" horiz-adv-x="600" 
d="M164 -109l16 115q-119 52 -119 262v625q0 151 59.5 218t176.5 67q28 0 63 -7l15 91h63l-18 -111q117 -51 117 -258v-625q0 -152 -59 -218t-173 -66q-31 0 -63 4l-15 -97h-63zM336 1014q-17 10 -39 10q-38 0 -55 -31.5t-17 -103.5v-682zM373 915l-107 -770q8 -8 33 -8
q39 0 56.5 32t17.5 103v643z" />
    <glyph glyph-name="ugrave" unicode="&#xf9;" 
d="M403 0l-18 94q-59 -110 -166 -110q-89 0 -121 70.5t-32 242.5v864h163v-870q0 -87 15 -121.5t55 -34.5t59 37.5t19 128.5v860h164v-1161h-138zM258 1309l-162 237h187l104 -237h-129z" />
    <glyph glyph-name="uacute" unicode="&#xfa;" 
d="M403 0l-18 94q-59 -110 -166 -110q-89 0 -121 70.5t-32 242.5v864h163v-870q0 -87 15 -121.5t55 -34.5t59 37.5t19 128.5v860h164v-1161h-138zM211 1309l102 237h187l-160 -237h-129z" />
    <glyph glyph-name="ucircumflex" unicode="&#xfb;" 
d="M403 0l-18 94q-59 -110 -166 -110q-89 0 -121 70.5t-32 242.5v864h163v-870q0 -87 15 -121.5t55 -34.5t59 37.5t19 128.5v860h164v-1161h-138zM387 1309l-86 143l-78 -143h-139l135 247h164l139 -247h-135z" />
    <glyph glyph-name="udieresis" unicode="&#xfc;" 
d="M406 0l-19 94q-59 -110 -166 -110q-89 0 -121 70.5t-32 242.5v864h163v-870q0 -87 15 -121.5t55 -34.5t59 37.5t19 128.5v860h164v-1161h-137zM152 1288q-43 0 -74 31.5t-31 75.5q0 43 31 73.5t74 30.5q44 0 74 -30.5t30 -73.5q0 -45 -30 -76t-74 -31zM461 1288
q-43 0 -74 31.5t-31 75.5q0 43 31 73.5t74 30.5q44 0 74 -30.5t30 -73.5q0 -45 -30 -76t-74 -31z" />
    <glyph glyph-name="yacute" unicode="&#xfd;" horiz-adv-x="573" 
d="M154 -410l61 338l-203 1233h172l109 -895l98 895h172l-237 -1571h-172zM195 1309l102 237h186l-159 -237h-129z" />
    <glyph glyph-name="thorn" unicode="&#xfe;" horiz-adv-x="606" 
d="M68 -408v1977h163v-488q1 2 7 11t8.5 12.5t9 12.5t11 13.5t13 12t15.5 11.5t17.5 9.5t21.5 8t24.5 4.5t28.5 2q90 0 123 -71.5t33 -242.5v-567q0 -171 -33 -242t-123 -71q-43 0 -76 16.5t-48.5 34t-31.5 43.5v-486h-163zM379 870q0 84 -15 119t-55 35t-59 -36.5
t-19 -129.5v-557q0 -91 19 -128.5t59 -37.5t55 34.5t15 121.5v579z" />
    <glyph glyph-name="ydieresis" unicode="&#xff;" horiz-adv-x="573" 
d="M154 -410l61 338l-203 1233h172l109 -895l98 895h172l-237 -1571h-172zM127 1288q-43 0 -73.5 31.5t-30.5 75.5q0 43 30.5 73.5t73.5 30.5q44 0 74 -30.5t30 -73.5q0 -45 -30 -76t-74 -31zM436 1288q-43 0 -73.5 31.5t-30.5 75.5q0 43 30.5 73.5t73.5 30.5
q44 0 74.5 -30.5t30.5 -73.5q0 -44 -30.5 -75.5t-74.5 -31.5z" />
    <glyph glyph-name="Amacron" unicode="&#x100;" horiz-adv-x="665" 
d="M489 0l-43 369h-227l-43 -369h-168l211 1569h225l213 -1569h-168zM332 1337l-92 -811h186zM96 1716v135h475v-135h-475z" />
    <glyph glyph-name="amacron" unicode="&#x101;" horiz-adv-x="595" 
d="M391 0l-18 94q-52 -110 -164 -110q-53 0 -85.5 26t-51.5 100.5t-19 204.5v29q0 170 36 239.5t122 69.5q57 0 92.5 -24t61.5 -70v309q0 87 -16 121.5t-58 34.5t-58 -34.5t-16 -121.5v-77h-164v61q0 169 52 247.5t188 78.5t185.5 -80t49.5 -262v-836h-137zM365 356
q0 73 -17.5 107.5t-58.5 34.5q-45 0 -58.5 -39t-13.5 -144v-30q0 -81 15 -114.5t55 -33.5q78 0 78 154v65zM55 1309v135h475v-135h-475z" />
    <glyph glyph-name="Abreve" unicode="&#x102;" horiz-adv-x="665" 
d="M489 0l-43 369h-227l-43 -369h-168l211 1569h225l213 -1569h-168zM332 1337l-92 -811h186zM549 1917q-1 -104 -57.5 -160.5t-155.5 -56.5t-157 57t-58 160h98q0 -47 29 -74.5t88 -27.5q57 0 86 27.5t31 74.5h96z" />
    <glyph glyph-name="abreve" unicode="&#x103;" horiz-adv-x="595" 
d="M391 0l-18 94q-52 -110 -164 -110q-53 0 -85.5 26t-51.5 100.5t-19 204.5v29q0 170 36 239.5t122 69.5q57 0 92.5 -24t61.5 -70v309q0 87 -16 121.5t-58 34.5t-58 -34.5t-16 -121.5v-77h-164v61q0 169 52 247.5t188 78.5t185.5 -80t49.5 -262v-836h-137zM365 356
q0 73 -17.5 107.5t-58.5 34.5q-45 0 -58.5 -39t-13.5 -144v-30q0 -81 15 -114.5t55 -33.5q78 0 78 154v65zM506 1509q-1 -104 -57.5 -160.5t-155.5 -56.5t-157 57t-58 160h98q0 -47 29 -74.5t88 -27.5q57 0 86 27.5t31 74.5h96z" />
    <glyph glyph-name="Aogonek" unicode="&#x104;" horiz-adv-x="665" 
d="M600 -389q-101 7 -161 65.5t-60 135.5q0 110 113 176l-46 381h-227l-43 -369h-168l211 1569h225l213 -1569q-69 -28 -103 -74.5t-34 -97.5q0 -95 137 -133zM332 1337l-92 -811h186z" />
    <glyph glyph-name="aogonek" unicode="&#x105;" horiz-adv-x="595" 
d="M489 -389q-101 7 -161 65.5t-60 135.5q0 120 129 186l-24 96q-52 -110 -166 -110q-52 0 -84 26t-51 100.5t-19 204.5v29q0 170 36 239.5t122 69.5q57 0 92.5 -24t61.5 -70v309q0 87 -16 121.5t-58 34.5t-58 -34.5t-16 -121.5v-77h-164v90q0 152 54.5 224.5t185.5 72.5
q130 0 182.5 -72.5t52.5 -228.5v-877q-118 -77 -118 -172t137 -133zM365 356q0 73 -17.5 107.5t-58.5 34.5q-45 0 -58.5 -39t-13.5 -144v-30q0 -81 15 -114.5t55 -33.5q78 0 78 154v65z" />
    <glyph glyph-name="Cacute" unicode="&#x106;" horiz-adv-x="692" 
d="M637 301q0 -91 -22 -156.5t-61.5 -102t-89 -53t-110.5 -16.5q-282 0 -282 328v967q0 327 286 327q279 0 279 -321v-252h-168v260q0 80 -32.5 118t-84.5 38q-60 0 -86 -51t-26 -164v-936q0 -81 32 -118.5t84 -37.5q113 0 113 201v192h168v-223zM264 1716l103 238h186
l-160 -238h-129z" />
    <glyph glyph-name="cacute" unicode="&#x107;" horiz-adv-x="585" 
d="M537 305q0 -177 -55.5 -249t-182.5 -72t-182.5 73t-55.5 254v537q0 181 55.5 255.5t182.5 74.5q126 0 182 -72t56 -248v-123h-164v154q0 73 -17.5 104t-58.5 31q-45 0 -58.5 -39.5t-13.5 -142.5v-570q0 -73 16.5 -104t57.5 -31q45 0 59.5 38.5t14.5 137.5v142h164v-150z
M199 1309l102 237h186l-159 -237h-129z" />
    <glyph glyph-name="Ccircumflex" unicode="&#x108;" horiz-adv-x="692" 
d="M637 301q0 -91 -22 -156.5t-61.5 -102t-89 -53t-110.5 -16.5q-282 0 -282 328v967q0 327 286 327q279 0 279 -321v-252h-168v260q0 80 -32.5 118t-84.5 38q-60 0 -86 -51t-26 -164v-936q0 -81 32 -118.5t84 -37.5q113 0 113 201v192h168v-223zM440 1716l-86 144l-78 -144
h-139l135 248h164l139 -248h-135z" />
    <glyph glyph-name="ccircumflex" unicode="&#x109;" horiz-adv-x="585" 
d="M537 305q0 -177 -55.5 -249t-182.5 -72t-182.5 73t-55.5 254v537q0 181 55.5 255.5t182.5 74.5q126 0 182 -72t56 -248v-123h-164v154q0 73 -17.5 104t-58.5 31q-45 0 -58.5 -39.5t-13.5 -142.5v-570q0 -73 16.5 -104t57.5 -31q45 0 59.5 38.5t14.5 137.5v142h164v-150z
M381 1309l-86 143l-78 -143h-139l135 247h164l139 -247h-135z" />
    <glyph glyph-name="Cdotaccent" unicode="&#x10a;" horiz-adv-x="692" 
d="M637 301q0 -91 -22 -156.5t-61.5 -102t-89 -53t-110.5 -16.5q-282 0 -282 328v967q0 327 286 327q279 0 279 -321v-252h-168v260q0 80 -32.5 118t-84.5 38q-60 0 -86 -51t-26 -164v-936q0 -81 32 -118.5t84 -37.5q113 0 113 201v192h168v-223zM354 1702q-43 0 -73.5 30
t-30.5 74t30.5 74.5t73.5 30.5q44 0 74.5 -30.5t30.5 -74.5t-30.5 -74t-74.5 -30z" />
    <glyph glyph-name="cdotaccent" unicode="&#x10b;" horiz-adv-x="585" 
d="M537 305q0 -177 -55.5 -249t-182.5 -72t-182.5 73t-55.5 254v537q0 181 55.5 255.5t182.5 74.5q126 0 182 -72t56 -248v-123h-164v154q0 73 -17.5 104t-58.5 31q-45 0 -58.5 -39.5t-13.5 -142.5v-570q0 -73 16.5 -104t57.5 -31q45 0 59.5 38.5t14.5 137.5v142h164v-150z
M297 1294q-43 0 -73.5 30.5t-30.5 74.5t30.5 74t73.5 30q44 0 74 -30t30 -74t-30 -74.5t-74 -30.5z" />
    <glyph glyph-name="Ccaron" unicode="&#x10c;" horiz-adv-x="692" 
d="M637 301q0 -91 -22 -156.5t-61.5 -102t-89 -53t-110.5 -16.5q-282 0 -282 328v967q0 327 286 327q279 0 279 -321v-252h-168v260q0 80 -32.5 118t-84.5 38q-60 0 -86 -51t-26 -164v-936q0 -81 32 -118.5t84 -37.5q113 0 113 201v192h168v-223zM274 1716l-139 248h137
l82 -141l82 141h137l-135 -248h-164z" />
    <glyph glyph-name="ccaron" unicode="&#x10d;" horiz-adv-x="585" 
d="M537 305q0 -177 -55.5 -249t-182.5 -72t-182.5 73t-55.5 254v537q0 181 55.5 255.5t182.5 74.5q126 0 182 -72t56 -248v-123h-164v154q0 73 -17.5 104t-58.5 31q-45 0 -58.5 -39.5t-13.5 -142.5v-570q0 -73 16.5 -104t57.5 -31q45 0 59.5 38.5t14.5 137.5v142h164v-150z
M217 1309l-139 247h137l82 -141l82 141h137l-135 -247h-164z" />
    <glyph glyph-name="Dcaron" unicode="&#x10e;" horiz-adv-x="708" 
d="M80 0v1569h274q143 0 212 -72t69 -256v-913q0 -184 -69 -256t-212 -72h-274zM467 1249q0 85 -27 120.5t-88 35.5h-104v-1243h104q61 0 88 35t27 120v932zM256 1716l-139 248h137l82 -141l82 141h137l-135 -248h-164z" />
    <glyph glyph-name="dcaron" unicode="&#x10f;" horiz-adv-x="698" 
d="M582 1102l71 467h191l-152 -467h-110zM401 0l-18 94q-59 -110 -166 -110q-90 0 -123 71t-33 242v567q0 171 33 242.5t123 71.5q44 0 78 -19t48 -38t30 -48v496h164v-1569h-136zM373 858q0 93 -19 129.5t-59 36.5t-55 -35t-15 -119v-579q0 -87 15 -121.5t55 -34.5t59 37.5
t19 128.5v557z" />
    <glyph glyph-name="Dcroat" unicode="&#x110;" horiz-adv-x="710" 
d="M82 0v711h-78v159h78v699h274q143 0 212 -72t69 -256v-913q0 -184 -69 -256t-212 -72h-274zM469 1255q0 85 -27 120.5t-88 35.5h-104v-541h117v-159h-117v-553h104q61 0 88 35t27 120v942z" />
    <glyph glyph-name="dcroat" unicode="&#x111;" horiz-adv-x="606" 
d="M401 0l-18 94q-59 -110 -166 -110q-90 0 -123 71t-33 242v567q0 171 33 242.5t123 71.5q44 0 78 -19t48 -38t30 -48v252h-213v127h213v117h164v-117h71v-127h-71v-1325h-136zM373 858q0 93 -19 129.5t-59 36.5t-55 -35t-15 -119v-579q0 -87 15 -121.5t55 -34.5t59 37.5
t19 128.5v557z" />
    <glyph glyph-name="Emacron" unicode="&#x112;" horiz-adv-x="622" 
d="M80 0v1569h489v-164h-321v-533h307v-163h-307v-547h321v-162h-489zM80 1716v135h475v-135h-475z" />
    <glyph glyph-name="emacron" unicode="&#x113;" horiz-adv-x="589" 
d="M537 307q0 -179 -55.5 -251t-182.5 -72t-182.5 73t-55.5 254v537q0 181 56.5 255.5t183.5 74.5t181.5 -74.5t54.5 -261.5v-328h-312v-242q0 -73 16.5 -104t57.5 -31q39 0 56.5 32t17.5 103v111h164v-76zM373 850q0 99 -14.5 136.5t-59.5 37.5q-47 0 -60.5 -36.5
t-13.5 -137.5v-184h148v184zM59 1309v135h476v-135h-476z" />
    <glyph glyph-name="Ebreve" unicode="&#x114;" horiz-adv-x="622" 
d="M80 0v1569h489v-164h-321v-533h307v-163h-307v-547h321v-162h-489zM537 1917q-1 -104 -57.5 -160.5t-155.5 -56.5t-157 57t-58 160h98q0 -47 29 -74.5t88 -27.5q57 0 85.5 27.5t30.5 74.5h97z" />
    <glyph glyph-name="ebreve" unicode="&#x115;" horiz-adv-x="589" 
d="M537 307q0 -179 -55.5 -251t-182.5 -72t-182.5 73t-55.5 254v537q0 181 56.5 255.5t183.5 74.5t181.5 -74.5t54.5 -261.5v-328h-312v-242q0 -73 16.5 -104t57.5 -31q39 0 56.5 32t17.5 103v111h164v-76zM373 850q0 99 -14.5 136.5t-59.5 37.5q-47 0 -60.5 -36.5
t-13.5 -137.5v-184h148v184zM510 1509q-1 -104 -57.5 -160.5t-155.5 -56.5t-157 57t-58 160h98q0 -47 29 -74.5t88 -27.5q57 0 86 27.5t31 74.5h96z" />
    <glyph glyph-name="Edotaccent" unicode="&#x116;" horiz-adv-x="622" 
d="M80 0v1569h489v-164h-321v-533h307v-163h-307v-547h321v-162h-489zM324 1702q-43 0 -74 30t-31 74t31 74.5t74 30.5q44 0 74 -30.5t30 -74.5t-30 -74t-74 -30z" />
    <glyph glyph-name="edotaccent" unicode="&#x117;" horiz-adv-x="589" 
d="M537 307q0 -179 -55.5 -251t-182.5 -72t-182.5 73t-55.5 254v537q0 181 56.5 255.5t183.5 74.5t181.5 -74.5t54.5 -261.5v-328h-312v-242q0 -73 16.5 -104t57.5 -31q39 0 56.5 32t17.5 103v111h164v-76zM373 850q0 99 -14.5 136.5t-59.5 37.5q-47 0 -60.5 -36.5
t-13.5 -137.5v-184h148v184zM297 1294q-43 0 -73.5 30.5t-30.5 74.5t30.5 74t73.5 30q44 0 74 -30t30 -74t-30 -74.5t-74 -30.5z" />
    <glyph glyph-name="Eogonek" unicode="&#x118;" horiz-adv-x="622" 
d="M471 -389q-102 7 -161.5 65.5t-59.5 135.5q0 124 131 188h-301v1569h489v-164h-321v-533h307v-163h-307v-547h321v-162h-61q-55 -36 -86 -81t-31 -91q0 -95 137 -133z" />
    <glyph glyph-name="eogonek" unicode="&#x119;" horiz-adv-x="589" 
d="M391 -379q-102 10 -161.5 67.5t-59.5 135.5q0 96 88 162q-97 11 -147 77.5t-50 204.5v625q0 153 59 219t179 66q118 0 178 -65.5t60 -219.5v-379h-312v-242q0 -73 16.5 -104t57.5 -31q39 0 56.5 32t17.5 103v111h164v-115q0 -63 -9 -108t-28.5 -74.5t-33.5 -43.5t-40 -34
q-35 -25 -56 -43.5t-40 -52t-19 -70.5q0 -105 138 -135zM373 889q0 71 -17.5 103t-56.5 32q-41 0 -57.5 -31t-16.5 -104v-223h148v223z" />
    <glyph glyph-name="Ecaron" unicode="&#x11a;" horiz-adv-x="622" 
d="M80 0v1569h489v-164h-321v-533h307v-163h-307v-547h321v-162h-489zM246 1716l-140 248h138l82 -141l82 141h137l-135 -248h-164z" />
    <glyph glyph-name="ecaron" unicode="&#x11b;" horiz-adv-x="589" 
d="M537 307q0 -179 -55.5 -251t-182.5 -72t-182.5 73t-55.5 254v537q0 181 56.5 255.5t183.5 74.5t181.5 -74.5t54.5 -261.5v-328h-312v-242q0 -73 16.5 -104t57.5 -31q39 0 56.5 32t17.5 103v111h164v-76zM373 850q0 99 -14.5 136.5t-59.5 37.5q-47 0 -60.5 -36.5
t-13.5 -137.5v-184h148v184zM217 1309l-139 247h137l82 -141l82 141h137l-135 -247h-164z" />
    <glyph glyph-name="Gcircumflex" unicode="&#x11c;" horiz-adv-x="720" 
d="M489 625h-139v161h307v-485q0 -328 -292 -328q-293 0 -293 328v967q0 176 77 251.5t216 75.5t215.5 -76t76.5 -251v-246h-168v260q0 156 -124 156q-58 0 -91.5 -37.5t-33.5 -118.5v-995q0 -156 125 -156q124 0 124 156v338zM451 1716l-86 144l-78 -144h-140l136 248h163
l140 -248h-135z" />
    <glyph glyph-name="gcircumflex" unicode="&#x11d;" horiz-adv-x="600" 
d="M537 -115q0 -162 -62 -230.5t-188 -68.5q-131 0 -188.5 73t-57.5 245v123q0 137 63 219q-2 3 -7 12.5t-6.5 13.5t-5.5 12.5t-5 14.5l-2.5 15t-1.5 18q0 66 71 137q-44 37 -65 92t-21 148v161q0 165 54.5 236.5t177.5 71.5q81 0 125 -31h178v-96l-98 2q39 -59 39 -172
v-166q0 -157 -58 -224t-182 -67q-43 0 -55 4q-29 -26 -29 -51q0 -55 98 -55q114 -2 170 -71.5t56 -236.5v-129zM373 868q0 87 -16 121.5t-58 34.5t-58 -34.5t-16 -121.5v-137q0 -87 16 -121.5t58 -34.5t58 34.5t16 121.5v137zM373 2q0 100 -16 133t-66 33q-49 0 -67.5 -32
t-18.5 -118v-122q0 -86 20.5 -121t65.5 -35q43 0 62.5 32t19.5 115v115zM385 1309l-86 143l-78 -143h-139l135 247h164l139 -247h-135z" />
    <glyph glyph-name="Gbreve" unicode="&#x11e;" horiz-adv-x="720" 
d="M489 625h-139v161h307v-485q0 -328 -292 -328q-293 0 -293 328v967q0 176 77 251.5t216 75.5t215.5 -76t76.5 -251v-246h-168v260q0 156 -124 156q-58 0 -91.5 -37.5t-33.5 -118.5v-995q0 -156 125 -156q124 0 124 156v338zM582 1917q-1 -104 -57.5 -160.5t-155.5 -56.5
t-157 57t-58 160h98q0 -47 29 -74.5t88 -27.5q57 0 85.5 27.5t30.5 74.5h97z" />
    <glyph glyph-name="gbreve" unicode="&#x11f;" horiz-adv-x="600" 
d="M537 -115q0 -162 -62 -230.5t-188 -68.5q-131 0 -188.5 73t-57.5 245v123q0 137 63 219q-2 3 -7 12.5t-6.5 13.5t-5.5 12.5t-5 14.5l-2.5 15t-1.5 18q0 66 71 137q-44 37 -65 92t-21 148v161q0 165 54.5 236.5t177.5 71.5q81 0 125 -31h178v-96l-98 2q39 -59 39 -172
v-166q0 -157 -58 -224t-182 -67q-43 0 -55 4q-29 -26 -29 -51q0 -55 98 -55q114 -2 170 -71.5t56 -236.5v-129zM373 868q0 87 -16 121.5t-58 34.5t-58 -34.5t-16 -121.5v-137q0 -87 16 -121.5t58 -34.5t58 34.5t16 121.5v137zM373 2q0 100 -16 133t-66 33q-49 0 -67.5 -32
t-18.5 -118v-122q0 -86 20.5 -121t65.5 -35q43 0 62.5 32t19.5 115v115zM516 1509q-1 -104 -57.5 -160.5t-155.5 -56.5t-157 57t-58 160h98q0 -47 29 -74.5t88 -27.5q57 0 86 27.5t31 74.5h96z" />
    <glyph glyph-name="Gdotaccent" unicode="&#x120;" horiz-adv-x="720" 
d="M489 625h-139v161h307v-485q0 -328 -292 -328q-293 0 -293 328v967q0 176 77 251.5t216 75.5t215.5 -76t76.5 -251v-246h-168v260q0 156 -124 156q-58 0 -91.5 -37.5t-33.5 -118.5v-995q0 -156 125 -156q124 0 124 156v338zM365 1702q-43 0 -74 30t-31 74t31 74.5
t74 30.5q44 0 74 -30.5t30 -74.5t-30 -74t-74 -30z" />
    <glyph glyph-name="gdotaccent" unicode="&#x121;" horiz-adv-x="600" 
d="M537 -115q0 -162 -62 -230.5t-188 -68.5q-131 0 -188.5 73t-57.5 245v123q0 137 63 219q-2 3 -7 12.5t-6.5 13.5t-5.5 12.5t-5 14.5l-2.5 15t-1.5 18q0 66 71 137q-44 37 -65 92t-21 148v161q0 165 54.5 236.5t177.5 71.5q81 0 125 -31h178v-96l-98 2q39 -59 39 -172
v-166q0 -157 -58 -224t-182 -67q-43 0 -55 4q-29 -26 -29 -51q0 -55 98 -55q114 -2 170 -71.5t56 -236.5v-129zM373 868q0 87 -16 121.5t-58 34.5t-58 -34.5t-16 -121.5v-137q0 -87 16 -121.5t58 -34.5t58 34.5t16 121.5v137zM373 2q0 100 -16 133t-66 33q-49 0 -67.5 -32
t-18.5 -118v-122q0 -86 20.5 -121t65.5 -35q43 0 62.5 32t19.5 115v115zM309 1294q-43 0 -73.5 30.5t-30.5 74.5t30.5 74t73.5 30q44 0 74.5 -30t30.5 -74t-30.5 -74.5t-74.5 -30.5z" />
    <glyph glyph-name="Gcommaaccent" unicode="&#x122;" horiz-adv-x="720" 
d="M489 625h-139v161h307v-485q0 -328 -292 -328q-293 0 -293 328v967q0 176 77 251.5t216 75.5t215.5 -76t76.5 -251v-246h-168v260q0 156 -124 156q-58 0 -91.5 -37.5t-33.5 -118.5v-995q0 -156 125 -156q124 0 124 156v338zM225 -371l92 269h177l-144 -269h-125z" />
    <glyph glyph-name="gcommaaccent" unicode="&#x123;" horiz-adv-x="600" 
d="M537 -115q0 -162 -62 -230.5t-188 -68.5q-131 0 -188.5 73t-57.5 245v123q0 137 63 219q-2 3 -7 12.5t-6.5 13.5t-5.5 12.5t-5 14.5l-2.5 15t-1.5 18q0 66 71 137q-44 37 -65 92t-21 148v161q0 165 54.5 236.5t177.5 71.5q81 0 125 -31h178v-96l-98 2q39 -59 39 -172
v-166q0 -157 -58 -224t-182 -67q-43 0 -55 4q-29 -26 -29 -51q0 -55 98 -55q114 -2 170 -71.5t56 -236.5v-129zM373 868q0 87 -16 121.5t-58 34.5t-58 -34.5t-16 -121.5v-137q0 -87 16 -121.5t58 -34.5t58 34.5t16 121.5v137zM373 2q0 100 -16 133t-66 33q-49 0 -67.5 -32
t-18.5 -118v-122q0 -86 20.5 -121t65.5 -35q43 0 62.5 32t19.5 115v115zM473 1577l-92 -268h-176l143 268h125z" />
    <glyph glyph-name="Hcircumflex" unicode="&#x124;" horiz-adv-x="727" 
d="M477 0v715h-229v-715h-168v1569h168v-692h229v692h168v-1569h-168zM444 1716l-86 144l-77 -144h-140l135 248h164l140 -248h-136z" />
    <glyph glyph-name="hcircumflex" unicode="&#x125;" 
d="M379 0v870q0 84 -15 119t-55 35t-59 -36.5t-19 -129.5v-858h-163v1569h163v-496q32 52 52 69q42 36 106 36q89 0 121.5 -71t32.5 -243v-864h-164zM236 1681l-86 144l-78 -144h-140l136 248h163l140 -248h-135z" />
    <glyph glyph-name="Hbar" unicode="&#x126;" horiz-adv-x="729" 
d="M479 0v715h-229v-715h-168v1192h-76v137h76v240h168v-240h229v240h168v-240h74v-137h-74v-1192h-168zM479 1192h-229v-315h229v315z" />
    <glyph glyph-name="hbar" unicode="&#x127;" 
d="M379 0v870q0 84 -15 119t-55 35t-59 -36.5t-19 -129.5v-858h-163v1325h-70v127h70v117h163v-117h215v-127h-215v-252q32 52 52 69q42 36 106 36q89 0 121.5 -71t32.5 -243v-864h-164z" />
    <glyph glyph-name="Itilde" unicode="&#x128;" horiz-adv-x="329" 
d="M82 0v1569h168v-1569h-168zM391 1878q-6 -74 -42.5 -118t-96.5 -44q-31 0 -77 18.5t-69 18.5q-20 0 -30.5 -7.5t-14.5 -29.5h-122q0 36 13 71.5t45 63t77 27.5q32 0 80.5 -17.5t66.5 -17.5q40 0 43 35h127z" />
    <glyph glyph-name="itilde" unicode="&#x129;" horiz-adv-x="301" 
d="M377 1470q-6 -74 -42.5 -117.5t-96.5 -43.5q-31 0 -77 18.5t-69 18.5q-20 0 -30.5 -7.5t-14.5 -29.5h-123q0 36 13 71t45 62.5t77 27.5q32 0 81 -17t67 -17q40 0 43 34h127zM68 0v1161h163v-1161h-163z" />
    <glyph glyph-name="Imacron" unicode="&#x12a;" horiz-adv-x="329" 
d="M82 0v1569h168v-1569h-168zM-74 1716v135h475v-135h-475z" />
    <glyph glyph-name="imacron" unicode="&#x12b;" horiz-adv-x="301" 
d="M-88 1309v135h475v-135h-475zM68 0v1161h163v-1161h-163z" />
    <glyph glyph-name="Ibreve" unicode="&#x12c;" horiz-adv-x="329" 
d="M82 0v1569h168v-1569h-168zM379 1917q-1 -104 -57.5 -160.5t-155.5 -56.5t-157 57t-58 160h98q0 -47 29 -74.5t88 -27.5q57 0 86 27.5t31 74.5h96z" />
    <glyph glyph-name="ibreve" unicode="&#x12d;" horiz-adv-x="301" 
d="M365 1509q-1 -104 -57.5 -160.5t-155.5 -56.5t-157 57t-58 160h98q0 -47 29 -74.5t88 -27.5q57 0 85.5 27.5t30.5 74.5h97zM68 0v1161h163v-1161h-163z" />
    <glyph glyph-name="Iogonek" unicode="&#x12e;" horiz-adv-x="329" 
d="M207 -389q-102 7 -161.5 65.5t-59.5 135.5q0 103 94 168v1589h168v-1569q-121 -77 -121 -172t137 -133z" />
    <glyph glyph-name="iogonek" unicode="&#x12f;" horiz-adv-x="301" 
d="M190 -389q-102 7 -161.5 65.5t-59.5 135.5q0 105 99 170v1179h163v-1161q-120 -77 -120 -172t137 -133zM150 1294q-47 0 -79 32t-32 79t32 79t79 32t78.5 -32t31.5 -79t-31.5 -79t-78.5 -32z" />
    <glyph glyph-name="Idotaccent" unicode="&#x130;" horiz-adv-x="329" 
d="M82 0v1569h168v-1569h-168zM164 1702q-43 0 -74 30t-31 74t31 74.5t74 30.5q44 0 74 -30.5t30 -74.5t-30 -74t-74 -30z" />
    <glyph glyph-name="dotlessi" unicode="&#x131;" horiz-adv-x="301" 
d="M68 0v1161h163v-1161h-163z" />
    <glyph glyph-name="IJ" unicode="&#x132;" horiz-adv-x="659" 
d="M80 0v1569h168v-1569h-168zM289 -393v157h6q48 0 81.5 38t33.5 118v1649h168v-1647q0 -74 -17 -131t-44 -91t-65 -55.5t-76 -29.5t-81 -8h-6z" />
    <glyph glyph-name="ij" unicode="&#x133;" horiz-adv-x="602" 
d="M68 0v1161h163v-1161h-163zM150 1294q-47 0 -79 32t-32 79t32 79t79 32t78.5 -32t31.5 -79t-31.5 -79t-78.5 -32zM233 -281q16 -2 35 -2q64 0 82.5 35.5t18.5 122.5v1286h163v-1288q0 -158 -46 -227.5t-167 -69.5q-41 0 -86 10v133zM451 1294q-47 0 -79 32t-32 79t32 79
t79 32t78.5 -32t31.5 -79t-31.5 -79t-78.5 -32z" />
    <glyph glyph-name="Jcircumflex" unicode="&#x134;" horiz-adv-x="329" 
d="M-39 -393v157h6q48 0 81.5 38t33.5 118v1649h168v-1647q0 -74 -17 -131t-44 -91t-65 -55.5t-76 -29.5t-81 -8h-6zM248 1716l-86 144l-78 -144h-139l135 248h164l139 -248h-135z" />
    <glyph glyph-name="jcircumflex" unicode="&#x135;" horiz-adv-x="301" 
d="M-68 -281q16 -2 35 -2q64 0 82.5 35.5t18.5 122.5v1286h163v-1288q0 -158 -46 -227.5t-167 -69.5q-41 0 -86 10v133zM233 1309l-86 143l-77 -143h-140l136 247h163l140 -247h-136z" />
    <glyph glyph-name="Kcommaaccent" unicode="&#x136;" horiz-adv-x="690" 
d="M539 0l-289 784l250 785h168l-238 -778l277 -791h-168zM80 0v1569h168v-1569h-168zM227 -371l92 269h177l-144 -269h-125z" />
    <glyph glyph-name="kcommaaccent" unicode="&#x137;" horiz-adv-x="612" 
d="M442 0l-209 594l209 567h168l-200 -561l198 -600h-166zM68 0v1569h163v-1569h-163zM184 -371l92 269h177l-144 -269h-125z" />
    <glyph glyph-name="kgreenlandic" unicode="&#x138;" horiz-adv-x="612" 
d="M444 0l-208 594l208 567h168l-200 -561l198 -600h-166zM70 0v1161h163v-1161h-163z" />
    <glyph glyph-name="Lacute" unicode="&#x139;" horiz-adv-x="493" 
d="M80 0v1569h168v-1407h229v-162h-397zM92 1716l103 238h186l-160 -238h-129z" />
    <glyph glyph-name="lacute" unicode="&#x13a;" horiz-adv-x="305" 
d="M70 0v1569h163v-1569h-163zM82 1706l102 238h187l-160 -238h-129z" />
    <glyph glyph-name="Lcommaaccent" unicode="&#x13b;" horiz-adv-x="493" 
d="M80 0v1569h168v-1407h229v-162h-397zM125 -371l92 269h176l-143 -269h-125z" />
    <glyph glyph-name="lcommaaccent" unicode="&#x13c;" horiz-adv-x="305" 
d="M66 0v1569h163v-1569h-163zM4 -371l92 269h176l-143 -269h-125z" />
    <glyph glyph-name="Lcaron" unicode="&#x13d;" horiz-adv-x="593" 
d="M342 1102l72 467h190l-151 -467h-111zM80 0v1569h168v-1407h229v-162h-397z" />
    <glyph glyph-name="lcaron" unicode="&#x13e;" horiz-adv-x="395" 
d="M279 1102l71 467h191l-152 -467h-110zM70 0v1569h163v-1569h-163z" />
    <glyph glyph-name="Ldot" unicode="&#x13f;" horiz-adv-x="587" 
d="M80 0v1569h168v-1407h229v-162h-397zM453 637q-44 0 -75.5 31t-31.5 75t31.5 76.5t75.5 32.5t76 -32.5t32 -76.5t-32 -75t-76 -31z" />
    <glyph glyph-name="ldot" unicode="&#x140;" horiz-adv-x="491" 
d="M70 0v1569h163v-1569h-163zM393 555q-44 0 -75 31.5t-31 75.5t31 76t75 32t76.5 -32t32.5 -76t-32.5 -75.5t-76.5 -31.5z" />
    <glyph glyph-name="Lslash" unicode="&#x141;" horiz-adv-x="546" 
d="M133 0v553l-78 -45l-73 133l151 84v844h168v-752l117 68l71 -133l-188 -107v-483h229v-162h-397z" />
    <glyph glyph-name="lslash" unicode="&#x142;" horiz-adv-x="450" 
d="M141 0v559l-71 -39l-74 131l145 80v838h164v-748l80 45l72 -133l-152 -84v-649h-164z" />
    <glyph glyph-name="Nacute" unicode="&#x143;" horiz-adv-x="802" 
d="M520 0l-276 1071l4 -1071h-168v1569h192l285 -1090l-4 1090h168v-1569h-201zM328 1716l102 238h186l-159 -238h-129z" />
    <glyph glyph-name="nacute" unicode="&#x144;" 
d="M381 0v870q0 84 -15 119t-55 35t-59 -36.5t-19 -129.5v-858h-163v1161h137l18 -94q59 111 166 111q89 0 121.5 -71t32.5 -243v-864h-164zM205 1309l102 237h187l-160 -237h-129z" />
    <glyph glyph-name="Ncommaaccent" unicode="&#x145;" horiz-adv-x="802" 
d="M520 0l-276 1071l4 -1071h-168v1569h192l285 -1090l-4 1090h168v-1569h-201zM264 -371l92 269h176l-143 -269h-125z" />
    <glyph glyph-name="ncommaaccent" unicode="&#x146;" 
d="M381 0v870q0 84 -15 119t-55 35t-59 -36.5t-19 -129.5v-858h-163v1161h137l18 -94q59 111 166 111q89 0 121.5 -71t32.5 -243v-864h-164zM168 -371l92 269h176l-143 -269h-125z" />
    <glyph glyph-name="Ncaron" unicode="&#x147;" horiz-adv-x="802" 
d="M520 0l-276 1071l4 -1071h-168v1569h192l285 -1090l-4 1090h168v-1569h-201zM328 1716l-140 248h138l82 -141l81 141h138l-135 -248h-164z" />
    <glyph glyph-name="ncaron" unicode="&#x148;" 
d="M381 0v870q0 84 -15 119t-55 35t-59 -36.5t-19 -129.5v-858h-163v1161h137l18 -94q59 111 166 111q89 0 121.5 -71t32.5 -243v-864h-164zM221 1309l-139 247h137l82 -141l82 141h137l-135 -247h-164z" />
    <glyph glyph-name="Eng" unicode="&#x14a;" horiz-adv-x="802" 
d="M432 -401v157h6q48 0 81.5 38t33.5 118v96l-307 1063l2 -1071h-168v1569h192l285 -1041l-4 1041h168v-1655q0 -74 -17 -131t-44 -91t-65 -55.5t-76 -29.5t-81 -8h-6z" />
    <glyph glyph-name="eng" unicode="&#x14b;" 
d="M246 -291q16 -2 35 -2q64 0 82 35t18 123v1005q0 84 -15 119t-55 35t-59 -36.5t-19 -129.5v-858h-163v1161h137l18 -94q59 111 166 111q89 0 121.5 -71t32.5 -243v-991q0 -158 -46 -227.5t-167 -69.5q-41 0 -86 10v123z" />
    <glyph glyph-name="Omacron" unicode="&#x14c;" horiz-adv-x="710" 
d="M72 1268q0 327 288 327q133 0 205 -75.5t72 -251.5v-967q0 -91 -22 -156.5t-61.5 -102t-89 -53t-110.5 -16.5q-282 0 -282 328v967zM469 1282q0 79 -33 117.5t-82 38.5q-51 0 -82.5 -38t-31.5 -118v-995q0 -81 31.5 -118.5t82.5 -37.5q49 0 82 38t33 118v995zM119 1716
v135h475v-135h-475z" />
    <glyph glyph-name="omacron" unicode="&#x14d;" horiz-adv-x="598" 
d="M535 268q0 -154 -60 -219t-178 -65q-120 0 -179 65.5t-59 218.5v625q0 153 59 219t179 66q118 0 178 -65.5t60 -219.5v-625zM371 889q0 73 -17.5 104t-58.5 31q-46 0 -59 -40t-13 -148v-564q0 -73 16.5 -104t57.5 -31q39 0 56.5 32t17.5 103v617zM59 1309v135h476v-135
h-476z" />
    <glyph glyph-name="Obreve" unicode="&#x14e;" horiz-adv-x="710" 
d="M72 1268q0 327 288 327q133 0 205 -75.5t72 -251.5v-967q0 -91 -22 -156.5t-61.5 -102t-89 -53t-110.5 -16.5q-282 0 -282 328v967zM469 1282q0 79 -33 117.5t-82 38.5q-51 0 -82.5 -38t-31.5 -118v-995q0 -81 31.5 -118.5t82.5 -37.5q49 0 82 38t33 118v995zM569 1917
q-1 -104 -57.5 -160.5t-155.5 -56.5t-157 57t-58 160h99q0 -47 28.5 -74.5t87.5 -27.5q57 0 86 27.5t31 74.5h96z" />
    <glyph glyph-name="obreve" unicode="&#x14f;" horiz-adv-x="600" 
d="M537 268q0 -154 -60 -219t-178 -65q-120 0 -179 65.5t-59 218.5v625q0 153 59 219t179 66q118 0 178 -65.5t60 -219.5v-625zM373 889q0 73 -17.5 104t-58.5 31q-46 0 -59 -40t-13 -148v-564q0 -73 16.5 -104t57.5 -31q39 0 56.5 32t17.5 103v617zM512 1509
q-1 -104 -57.5 -160.5t-155.5 -56.5t-157 57t-58 160h98q0 -47 29 -74.5t88 -27.5q57 0 86 27.5t31 74.5h96z" />
    <glyph glyph-name="Ohungarumlaut" unicode="&#x150;" horiz-adv-x="710" 
d="M72 1268q0 327 288 327q133 0 205 -75.5t72 -251.5v-967q0 -91 -22 -156.5t-61.5 -102t-89 -53t-110.5 -16.5q-282 0 -282 328v967zM469 1282q0 79 -33 117.5t-82 38.5q-51 0 -82.5 -38t-31.5 -118v-995q0 -81 31.5 -118.5t82.5 -37.5q49 0 82 38t33 118v995zM135 1716
l90 242h176l-127 -242h-139zM379 1716l90 242h176l-127 -242h-139z" />
    <glyph glyph-name="ohungarumlaut" unicode="&#x151;" horiz-adv-x="598" 
d="M537 268q0 -154 -60 -219t-178 -65q-120 0 -179 65.5t-59 218.5v625q0 153 59 219t179 66q118 0 178 -65.5t60 -219.5v-625zM373 889q0 73 -17.5 104t-58.5 31q-46 0 -59 -40t-13 -148v-564q0 -73 16.5 -104t57.5 -31q39 0 56.5 32t17.5 103v617zM78 1309l90 241h176
l-127 -241h-139zM322 1309l90 241h176l-127 -241h-139z" />
    <glyph glyph-name="OE" unicode="&#x152;" horiz-adv-x="1011" 
d="M489 0q-55 -27 -135 -27q-282 0 -282 328v967q0 327 284 327q75 0 142 -26h460v-164h-321v-533h307v-163h-307v-547h321v-162h-469zM469 1288q0 74 -34 112t-81 38q-51 0 -82.5 -38t-31.5 -118v-995q0 -81 31.5 -118.5t80.5 -37.5q46 0 80.5 32.5t34.5 106.5z" />
    <glyph glyph-name="oe" unicode="&#x153;" horiz-adv-x="901" 
d="M848 268q0 -152 -60 -218t-176 -66q-107 0 -157 65q-49 -65 -156 -65q-127 0 -182.5 73t-55.5 250v545q0 180 55.5 253t182.5 73q106 0 156 -66q50 66 159 66q124 0 179 -72.5t55 -253.5v-338h-311v-254q0 -66 17.5 -94.5t55.5 -28.5q39 0 56.5 32t17.5 103v111h164v-115
zM373 901q0 65 -18.5 94t-57.5 29q-46 0 -59 -40t-13 -148v-564q0 -72 17 -103.5t55 -31.5q76 0 76 123v641zM684 889q0 72 -17.5 103.5t-58.5 31.5q-42 0 -56.5 -36.5t-14.5 -125.5v-196h147v223z" />
    <glyph glyph-name="Racute" unicode="&#x154;" horiz-adv-x="688" 
d="M508 0l-182 664h-78v-664h-168v1569h274q143 0 212 -72t69 -256v-244q0 -133 -34 -205t-118 -100l193 -692h-168zM467 1249q0 85 -27 120.5t-88 35.5h-104v-580h104q61 0 88 35.5t27 120.5v268zM242 1716l102 238h186l-159 -238h-129z" />
    <glyph glyph-name="racute" unicode="&#x155;" horiz-adv-x="464" 
d="M70 0v1161h137l18 -94q16 38 57.5 73.5t96.5 35.5q44 0 88 -25l-35 -172q-58 27 -102 27q-54 0 -75.5 -51t-21.5 -179v-776h-163zM154 1309l102 237h186l-159 -237h-129z" />
    <glyph glyph-name="Rcommaaccent" unicode="&#x156;" horiz-adv-x="688" 
d="M508 0l-182 664h-78v-664h-168v1569h274q143 0 212 -72t69 -256v-244q0 -133 -34 -205t-118 -100l193 -692h-168zM467 1249q0 85 -27 120.5t-88 35.5h-104v-580h104q61 0 88 35.5t27 120.5v268zM219 -371l92 269h176l-143 -269h-125z" />
    <glyph glyph-name="rcommaaccent" unicode="&#x157;" horiz-adv-x="464" 
d="M70 0v1161h137l18 -94q16 38 57.5 73.5t96.5 35.5q44 0 88 -25l-35 -172q-58 27 -102 27q-54 0 -75.5 -51t-21.5 -179v-776h-163zM31 -371l92 269h176l-143 -269h-125z" />
    <glyph glyph-name="Rcaron" unicode="&#x158;" horiz-adv-x="688" 
d="M508 0l-182 664h-78v-664h-168v1569h274q143 0 212 -72t69 -256v-244q0 -133 -34 -205t-118 -100l193 -692h-168zM467 1249q0 85 -27 120.5t-88 35.5h-104v-580h104q61 0 88 35.5t27 120.5v268zM250 1716l-139 248h137l82 -141l82 141h137l-135 -248h-164z" />
    <glyph glyph-name="rcaron" unicode="&#x159;" horiz-adv-x="462" 
d="M70 0v1161h137l18 -94q16 38 57.5 73.5t96.5 35.5q44 0 88 -25l-35 -172q-58 27 -102 27q-54 0 -75.5 -51t-21.5 -179v-776h-163zM168 1309l-139 247h137l82 -141l82 141h137l-135 -247h-164z" />
    <glyph glyph-name="Sacute" unicode="&#x15a;" horiz-adv-x="681" 
d="M623 311q0 -338 -281 -338q-285 0 -285 338v213h168v-237q0 -81 32.5 -118.5t84.5 -37.5q113 0 113 191v135q0 40 -22 80.5t-57 76.5t-77.5 74.5t-85 81t-77.5 88t-57 103.5t-22 120v199q0 90 25 154.5t68.5 98t91 48t104.5 14.5q56 0 102.5 -14.5t87.5 -48t64 -98.5
t23 -156v-256h-168v260q0 81 -32.5 118.5t-84.5 37.5q-113 0 -113 -193v-135q0 -60 29.5 -115t73.5 -95.5t96 -87t96 -89.5t73.5 -104.5t29.5 -129.5v-178zM250 1716l102 238h187l-160 -238h-129z" />
    <glyph glyph-name="sacute" unicode="&#x15b;" horiz-adv-x="581" 
d="M207 289q0 -82 17 -117t65 -35q46 0 66 29.5t20 91.5q0 60 -18.5 107.5t-47.5 79.5t-64.5 61t-71 62t-64.5 73.5t-47.5 104.5t-18.5 145q0 154 64 220.5t188 66.5q128 0 186 -67.5t58 -229.5v-107h-164v94q0 88 -17 122t-65 34q-47 0 -65.5 -30t-18.5 -93q0 -68 18 -119
t47.5 -82.5t64.5 -59t70 -57.5t64.5 -68t47.5 -101t18 -146q0 -151 -60.5 -217.5t-191.5 -66.5q-132 0 -188 71t-56 234v94h164v-94zM197 1309l102 237h186l-159 -237h-129z" />
    <glyph glyph-name="Scircumflex" unicode="&#x15c;" horiz-adv-x="681" 
d="M623 311q0 -338 -281 -338q-285 0 -285 338v213h168v-237q0 -81 32.5 -118.5t84.5 -37.5q113 0 113 191v135q0 40 -22 80.5t-57 76.5t-77.5 74.5t-85 81t-77.5 88t-57 103.5t-22 120v199q0 90 25 154.5t68.5 98t91 48t104.5 14.5q56 0 102.5 -14.5t87.5 -48t64 -98.5
t23 -156v-256h-168v260q0 81 -32.5 118.5t-84.5 37.5q-113 0 -113 -193v-135q0 -60 29.5 -115t73.5 -95.5t96 -87t96 -89.5t73.5 -104.5t29.5 -129.5v-178zM428 1716l-86 144l-78 -144h-139l135 248h164l139 -248h-135z" />
    <glyph glyph-name="scircumflex" unicode="&#x15d;" horiz-adv-x="581" 
d="M207 289q0 -82 17 -117t65 -35q46 0 66 29.5t20 91.5q0 60 -18.5 107.5t-47.5 79.5t-64.5 61t-71 62t-64.5 73.5t-47.5 104.5t-18.5 145q0 154 64 220.5t188 66.5q128 0 186 -67.5t58 -229.5v-107h-164v94q0 88 -17 122t-65 34q-47 0 -65.5 -30t-18.5 -93q0 -68 18 -119
t47.5 -82.5t64.5 -59t70 -57.5t64.5 -68t47.5 -101t18 -146q0 -151 -60.5 -217.5t-191.5 -66.5q-132 0 -188 71t-56 234v94h164v-94zM381 1309l-86 143l-78 -143h-139l135 247h164l139 -247h-135z" />
    <glyph glyph-name="Scedilla" unicode="&#x15e;" horiz-adv-x="679" 
d="M221 -246q31 -18 72 -18q35 0 56.5 18.5t21.5 44.5t-21.5 45t-62.5 19q-15 0 -21 -2l29 114q-238 24 -238 336v213h168v-237q0 -80 33.5 -118t81.5 -38t81.5 38t33.5 118v170q0 40 -22 80.5t-57 76.5t-77.5 74.5t-85 81t-77.5 88t-57 103.5t-22 120v199q0 90 25 154.5
t68.5 98t91 48t104.5 14.5q56 0 102.5 -14.5t87.5 -48t64 -98.5t23 -156v-256h-168v260q0 80 -33.5 118t-81.5 38t-81.5 -38t-33.5 -118v-172q0 -60 29.5 -115t73.5 -95.5t96 -87t96 -89.5t73.5 -104.5t29.5 -129.5v-178q0 -293 -213 -331l-17 -74q54 0 88.5 -37t34.5 -88
q0 -60 -50 -105t-138 -45q-72 0 -131 25z" />
    <glyph glyph-name="scedilla" unicode="&#x15f;" horiz-adv-x="581" 
d="M166 -246q31 -18 70 -18q36 0 56.5 18.5t20.5 44.5t-20.5 45t-61.5 19q-14 0 -20 -2l31 125q-109 10 -155 81.5t-46 221.5v94h164v-94q0 -82 17 -117t65 -35q46 0 66 29.5t20 91.5q0 60 -18.5 107.5t-47.5 79.5t-64.5 61t-71 62t-64.5 73.5t-47.5 104.5t-18.5 145
q0 154 64 220.5t188 66.5q128 0 186 -67.5t58 -229.5v-107h-164v94q0 88 -17 122t-65 34q-47 0 -65.5 -30t-18.5 -93q0 -68 18 -119t47.5 -83t64.5 -59.5t70 -57.5t64.5 -68t47.5 -100.5t18 -145.5q0 -128 -44 -194.5t-137 -83.5l-20 -84q54 0 88.5 -37t34.5 -88
q0 -60 -50 -105t-137 -45q-71 0 -133 25z" />
    <glyph glyph-name="Scaron" unicode="&#x160;" horiz-adv-x="681" 
d="M623 311q0 -338 -281 -338q-285 0 -285 338v213h168v-237q0 -81 32.5 -118.5t84.5 -37.5q113 0 113 191v135q0 40 -22 80.5t-57 76.5t-77.5 74.5t-85 81t-77.5 88t-57 103.5t-22 120v199q0 90 25 154.5t68.5 98t91 48t104.5 14.5q56 0 102.5 -14.5t87.5 -48t64 -98.5
t23 -156v-256h-168v260q0 81 -32.5 118.5t-84.5 37.5q-113 0 -113 -193v-135q0 -60 29.5 -115t73.5 -95.5t96 -87t96 -89.5t73.5 -104.5t29.5 -129.5v-178zM264 1716l-139 248h137l82 -141l82 141h137l-135 -248h-164z" />
    <glyph glyph-name="scaron" unicode="&#x161;" horiz-adv-x="581" 
d="M207 289q0 -82 17 -117t65 -35q46 0 66 29.5t20 91.5q0 60 -18.5 107.5t-47.5 79.5t-64.5 61t-71 62t-64.5 73.5t-47.5 104.5t-18.5 145q0 154 64 220.5t188 66.5q128 0 186 -67.5t58 -229.5v-107h-164v94q0 88 -17 122t-65 34q-47 0 -65.5 -30t-18.5 -93q0 -68 18 -119
t47.5 -82.5t64.5 -59t70 -57.5t64.5 -68t47.5 -101t18 -146q0 -151 -60.5 -217.5t-191.5 -66.5q-132 0 -188 71t-56 234v94h164v-94zM217 1309l-139 247h137l82 -141l82 141h137l-135 -247h-164z" />
    <glyph glyph-name="Tcommaaccent" unicode="&#x162;" horiz-adv-x="589" 
d="M211 0v1405h-195v164h557v-164h-194v-1405h-168zM154 -371l92 269h176l-143 -269h-125z" />
    <glyph glyph-name="tcommaaccent" unicode="&#x163;" horiz-adv-x="417" 
d="M403 -6q-45 -10 -88 -10q-121 0 -166 69t-45 238v719h-92v151h92v287h164v-287h133v-151h-133v-731q0 -84 17.5 -117t74.5 -33q27 0 43 2v-137zM113 -371l92 269h176l-143 -269h-125z" />
    <glyph glyph-name="Tcaron" unicode="&#x164;" horiz-adv-x="589" 
d="M211 0v1405h-195v164h557v-164h-194v-1405h-168zM213 1716l-139 248h137l82 -141l82 141h137l-135 -248h-164z" />
    <glyph glyph-name="tcaron" unicode="&#x165;" horiz-adv-x="419" 
d="M356 1272l72 364h190l-151 -364h-111zM403 -6q-45 -10 -88 -10q-121 0 -166 69t-45 238v719h-92v151h92v287h164v-287h133v-151h-133v-731q0 -84 17.5 -117t74.5 -33q27 0 43 2v-137z" />
    <glyph glyph-name="Tbar" unicode="&#x166;" horiz-adv-x="616" 
d="M223 0v727h-143v139h143v539h-194v164h557v-164h-195v-539h144v-139h-144v-727h-168z" />
    <glyph glyph-name="tbar" unicode="&#x167;" horiz-adv-x="421" 
d="M406 -6q-45 -10 -89 -10q-121 0 -166 69t-45 238v301h-86v139h86v279h-92v151h92v287h164v-287h133v-151h-133v-279h123v-139h-123v-313q0 -85 16.5 -117.5t73.5 -32.5q30 0 46 2v-137z" />
    <glyph glyph-name="Utilde" unicode="&#x168;" horiz-adv-x="720" 
d="M475 1569h168v-1268q0 -91 -22 -156.5t-61.5 -102t-89 -53t-110.5 -16.5q-282 0 -282 328v1268h168v-1282q0 -81 31.5 -118.5t82.5 -37.5q49 0 82 38t33 118v1282zM584 1878q-6 -74 -43 -118t-97 -44q-31 0 -76.5 18.5t-68.5 18.5q-20 0 -30.5 -7.5t-14.5 -29.5h-123
q0 36 13 71.5t45 63t77 27.5q32 0 81 -17.5t67 -17.5q40 0 43 35h127z" />
    <glyph glyph-name="utilde" unicode="&#x169;" 
d="M403 0l-18 94q-59 -110 -166 -110q-89 0 -121 70.5t-32 242.5v864h163v-870q0 -87 15 -121.5t55 -34.5t59 37.5t19 128.5v860h164v-1161h-138zM530 1470q-6 -74 -42.5 -117.5t-96.5 -43.5q-31 0 -76.5 18.5t-68.5 18.5q-20 0 -30.5 -7.5t-14.5 -29.5h-123q0 36 13 71
t45 62.5t77 27.5q32 0 80.5 -17t66.5 -17q40 0 43 34h127z" />
    <glyph glyph-name="Umacron" unicode="&#x16a;" horiz-adv-x="720" 
d="M475 1569h168v-1268q0 -91 -22 -156.5t-61.5 -102t-89 -53t-110.5 -16.5q-282 0 -282 328v1268h168v-1282q0 -81 31.5 -118.5t82.5 -37.5q49 0 82 38t33 118v1282zM121 1716v135h475v-135h-475z" />
    <glyph glyph-name="umacron" unicode="&#x16b;" 
d="M403 0l-18 94q-59 -110 -166 -110q-89 0 -121 70.5t-32 242.5v864h163v-870q0 -87 15 -121.5t55 -34.5t59 37.5t19 128.5v860h164v-1161h-138zM66 1309v135h475v-135h-475z" />
    <glyph glyph-name="Ubreve" unicode="&#x16c;" horiz-adv-x="720" 
d="M475 1569h168v-1268q0 -91 -22 -156.5t-61.5 -102t-89 -53t-110.5 -16.5q-282 0 -282 328v1268h168v-1282q0 -81 31.5 -118.5t82.5 -37.5q49 0 82 38t33 118v1282zM571 1917q-1 -104 -57.5 -160.5t-155.5 -56.5t-157 57t-58 160h99q0 -47 28.5 -74.5t87.5 -27.5
q57 0 86 27.5t31 74.5h96z" />
    <glyph glyph-name="ubreve" unicode="&#x16d;" 
d="M403 0l-18 94q-59 -110 -166 -110q-89 0 -121 70.5t-32 242.5v864h163v-870q0 -87 15 -121.5t55 -34.5t59 37.5t19 128.5v860h164v-1161h-138zM518 1509q-1 -104 -57.5 -160.5t-155.5 -56.5t-157 57t-58 160h98q0 -47 29 -74.5t88 -27.5q57 0 86 27.5t31 74.5h96z" />
    <glyph glyph-name="Uring" unicode="&#x16e;" horiz-adv-x="720" 
d="M475 1569h168v-1268q0 -91 -22 -156.5t-61.5 -102t-89 -53t-110.5 -16.5q-282 0 -282 328v1268h168v-1282q0 -81 31.5 -118.5t82.5 -37.5q49 0 82 38t33 118v1282zM426 1827q0 29 -20 48t-50 19q-29 0 -48 -19t-19 -48q0 -30 19 -50t48 -20t49.5 20.5t20.5 49.5z
M356 1671q-66 0 -109.5 45t-43.5 111t43.5 109.5t109.5 43.5t111 -43.5t45 -109.5t-45 -111t-111 -45z" />
    <glyph glyph-name="uring" unicode="&#x16f;" 
d="M403 0l-18 94q-59 -110 -166 -110q-89 0 -121 70.5t-32 242.5v864h163v-870q0 -87 15 -121.5t55 -34.5t59 37.5t19 128.5v860h164v-1161h-138zM373 1419q0 29 -20.5 48.5t-49.5 19.5t-48 -19.5t-19 -48.5t19 -49t48 -20t49.5 20t20.5 49zM303 1264q-66 0 -109.5 44.5
t-43.5 110.5t43.5 110t109.5 44t111 -44t45 -110t-45 -110.5t-111 -44.5z" />
    <glyph glyph-name="Uhungarumlaut" unicode="&#x170;" horiz-adv-x="720" 
d="M475 1569h168v-1268q0 -91 -22 -156.5t-61.5 -102t-89 -53t-110.5 -16.5q-282 0 -282 328v1268h168v-1282q0 -81 31.5 -118.5t82.5 -37.5q49 0 82 38t33 118v1282zM143 1716l90 242h177l-127 -242h-140zM387 1716l90 242h176l-127 -242h-139z" />
    <glyph glyph-name="uhungarumlaut" unicode="&#x171;" 
d="M403 0l-18 94q-59 -110 -166 -110q-89 0 -121 70.5t-32 242.5v864h163v-870q0 -87 15 -121.5t55 -34.5t59 37.5t19 128.5v860h164v-1161h-138zM94 1309l90 241h176l-127 -241h-139zM338 1309l90 241h176l-127 -241h-139z" />
    <glyph glyph-name="Uogonek" unicode="&#x172;" horiz-adv-x="720" 
d="M451 -389q-101 7 -161.5 66t-60.5 137q0 94 90 161q-241 28 -241 326v1268h168v-1282q0 -81 31.5 -118.5t82.5 -37.5q49 0 82 38t33 118v1282h168v-1268q0 -60 -10.5 -108.5t-23.5 -77.5t-38 -56t-41.5 -39t-46.5 -32q-31 -20 -52 -37.5t-40.5 -50.5t-19.5 -70
q0 -97 137 -135z" />
    <glyph glyph-name="uogonek" unicode="&#x173;" 
d="M504 -389q-102 7 -161.5 65.5t-59.5 137.5q0 118 127 184l-23 96q-59 -110 -166 -110q-90 0 -122.5 71t-32.5 242v864h163v-870q0 -87 15 -121.5t55 -34.5t59 37.5t19 128.5v860h164v-1161q-55 -36 -86 -81t-31 -91q0 -95 137 -133z" />
    <glyph glyph-name="Wcircumflex" unicode="&#x174;" horiz-adv-x="1093" 
d="M901 0h-219l-135 1223l-133 -1223h-221l-173 1569h168l117 -1256l135 1256h213l135 -1256l117 1256h168zM633 1716l-86 144l-78 -144h-139l135 248h164l139 -248h-135z" />
    <glyph glyph-name="wcircumflex" unicode="&#x175;" horiz-adv-x="927" 
d="M553 0l-88 848l-88 -848h-203l-158 1161h172l93 -901l94 901h180l94 -901l92 901h172l-157 -1161h-203zM551 1309l-86 143l-78 -143h-139l135 247h164l139 -247h-135z" />
    <glyph glyph-name="Ycircumflex" unicode="&#x176;" horiz-adv-x="667" 
d="M250 0v565l-242 1004h170l154 -738l157 738h170l-243 -1004v-565h-166zM418 1716l-86 144l-78 -144h-139l135 248h164l139 -248h-135z" />
    <glyph glyph-name="ycircumflex" unicode="&#x177;" horiz-adv-x="573" 
d="M154 -410l61 338l-203 1233h172l109 -895l98 895h172l-237 -1571h-172zM365 1309l-86 143l-78 -143h-140l136 247h163l140 -247h-135z" />
    <glyph glyph-name="Ydieresis" unicode="&#x178;" horiz-adv-x="667" 
d="M250 0v565l-242 1004h170l154 -738l157 738h170l-243 -1004v-565h-166zM178 1696q-43 0 -73.5 31t-30.5 75q0 43 30.5 74t73.5 31q44 0 74.5 -31t30.5 -74q0 -44 -30.5 -75t-74.5 -31zM487 1696q-43 0 -73.5 31t-30.5 75q0 43 30.5 74t73.5 31q44 0 74.5 -31t30.5 -74
q0 -44 -30.5 -75t-74.5 -31z" />
    <glyph glyph-name="Zacute" unicode="&#x179;" horiz-adv-x="583" 
d="M29 0v162l327 1243h-309v164h506v-74l-352 -1333h352v-162h-524zM221 1716l103 238h186l-160 -238h-129z" />
    <glyph glyph-name="zacute" unicode="&#x17a;" horiz-adv-x="522" 
d="M20 0v139l291 871h-252v151h441v-112l-295 -895h270v-154h-455zM182 1309l103 237h186l-160 -237h-129z" />
    <glyph glyph-name="Zdotaccent" unicode="&#x17b;" horiz-adv-x="583" 
d="M29 0v162l327 1243h-309v164h506v-74l-352 -1333h352v-162h-524zM313 1702q-43 0 -73.5 30t-30.5 74t30.5 74.5t73.5 30.5q44 0 74.5 -30.5t30.5 -74.5t-30.5 -74t-74.5 -30z" />
    <glyph glyph-name="zdotaccent" unicode="&#x17c;" horiz-adv-x="522" 
d="M20 0v139l291 871h-252v151h441v-112l-295 -895h270v-154h-455zM281 1294q-43 0 -74 30.5t-31 74.5t31 74t74 30q44 0 74 -30t30 -74t-30 -74.5t-74 -30.5z" />
    <glyph glyph-name="Zcaron" unicode="&#x17d;" horiz-adv-x="583" 
d="M29 0v162l327 1243h-309v164h506v-74l-352 -1333h352v-162h-524zM236 1716l-140 248h137l82 -141l82 141h138l-136 -248h-163z" />
    <glyph glyph-name="zcaron" unicode="&#x17e;" horiz-adv-x="522" 
d="M20 0v139l291 871h-252v151h441v-112l-295 -895h270v-154h-455zM203 1309l-140 247h138l82 -141l82 141h137l-135 -247h-164z" />
    <glyph glyph-name="florin" unicode="&#x192;" horiz-adv-x="858" 
d="M104 135q24 -6 46 -6q23 0 41 8.5t29 19.5t21 35.5t15.5 43.5t13.5 55l97 454h-146l33 152h145l78 373q35 164 101 235.5t180 71.5q37 0 82 -10l-29 -144q-32 7 -47 7q-55 0 -79 -38t-44 -124l-78 -371h144l-33 -152h-144l-96 -456q-35 -165 -99.5 -236t-176.5 -71
q-40 0 -82 10z" />
    <glyph glyph-name="AEacute" unicode="&#x1fc;" horiz-adv-x="1013" 
d="M473 0v369h-227l-92 -369h-166l401 1569h574v-164h-322v-533h307v-163h-307v-547h322v-162h-490zM473 1315l-186 -785h186v785zM582 1716l102 238h186l-159 -238h-129z" />
    <glyph glyph-name="aeacute" unicode="&#x1fd;" horiz-adv-x="892" 
d="M840 295q0 -170 -57 -240.5t-181 -70.5q-170 0 -217 135q-35 -69 -73.5 -102t-104.5 -33q-52 0 -84 27t-51 103t-19 208v14q0 176 35.5 246.5t122.5 70.5q57 0 92.5 -24t61.5 -70v322q0 80 -16.5 111.5t-57.5 31.5q-42 0 -58 -34.5t-16 -121.5v-77h-164v90
q0 152 54.5 224.5t185.5 72.5q103 0 153 -56q53 56 156 56q125 0 181.5 -71t56.5 -249v-344h-312v-182q0 -37 0.5 -57.5t2.5 -47t7 -40t13 -27t20.5 -18.5t30.5 -5q43 0 58.5 36.5t15.5 127.5v82h164v-88zM676 889q0 71 -17.5 103t-56.5 32q-45 0 -59.5 -38t-14.5 -136v-184
h148v223zM365 356q0 73 -17.5 107.5t-58.5 34.5q-45 0 -58.5 -39t-13.5 -144v-30q0 -81 15 -114.5t55 -33.5q78 0 78 154v65zM358 1309l103 237h186l-160 -237h-129z" />
    <glyph glyph-name="Oslashacute" unicode="&#x1fe;" horiz-adv-x="710" 
d="M240 1716l102 238h186l-159 -238h-129zM72 1268q0 327 282 327q55 0 88 -8l15 88h75l-18 -114q123 -76 123 -293v-967q0 -175 -76.5 -251.5t-204.5 -76.5q-39 0 -88 11l-14 -93h-76l19 119q-125 77 -125 291v967zM240 223l176 1194q-27 21 -62 21q-51 0 -82.5 -38
t-31.5 -118v-1059zM469 1329l-176 -1182q26 -16 59 -16q52 0 84.5 37.5t32.5 118.5v1042z" />
    <glyph glyph-name="oslashacute" unicode="&#x1ff;" horiz-adv-x="600" 
d="M188 1309l103 237h186l-160 -237h-129zM164 -109l16 115q-119 52 -119 262v625q0 151 59.5 218t176.5 67q28 0 63 -7l15 91h63l-18 -111q117 -51 117 -258v-625q0 -152 -59 -218t-173 -66q-31 0 -63 4l-15 -97h-63zM336 1014q-17 10 -39 10q-38 0 -55 -31.5t-17 -103.5
v-682zM373 915l-107 -770q8 -8 33 -8q39 0 56.5 32t17.5 103v643z" />
    <glyph glyph-name="Scommaaccent" unicode="&#x218;" horiz-adv-x="681" 
d="M623 311q0 -338 -281 -338q-285 0 -285 338v213h168v-237q0 -81 32.5 -118.5t84.5 -37.5q113 0 113 191v135q0 40 -22 80.5t-57 76.5t-77.5 74.5t-85 81t-77.5 88t-57 103.5t-22 120v199q0 90 25 154.5t68.5 98t91 48t104.5 14.5q56 0 102.5 -14.5t87.5 -48t64 -98.5
t23 -156v-256h-168v260q0 81 -32.5 118.5t-84.5 37.5q-113 0 -113 -193v-135q0 -60 29.5 -115t73.5 -95.5t96 -87t96 -89.5t73.5 -104.5t29.5 -129.5v-178zM217 -371l92 269h176l-143 -269h-125z" />
    <glyph glyph-name="scommaaccent" unicode="&#x219;" horiz-adv-x="581" 
d="M207 289q0 -82 17 -117t65 -35q46 0 66 29.5t20 91.5q0 60 -18.5 107.5t-47.5 79.5t-64.5 61t-71 62t-64.5 73.5t-47.5 104.5t-18.5 145q0 154 64 220.5t188 66.5q128 0 186 -67.5t58 -229.5v-107h-164v94q0 88 -17 122t-65 34q-47 0 -65.5 -30t-18.5 -93q0 -68 18 -119
t47.5 -82.5t64.5 -59t70 -57.5t64.5 -68t47.5 -101t18 -146q0 -151 -60.5 -217.5t-191.5 -66.5q-132 0 -188 71t-56 234v94h164v-94zM168 -371l92 269h176l-143 -269h-125z" />
    <glyph glyph-name="dotlessj" unicode="&#x237;" horiz-adv-x="301" 
d="M-68 -281q16 -2 35 -2q64 0 82.5 35.5t18.5 122.5v1286h163v-1288q0 -158 -46 -227.5t-167 -69.5q-41 0 -86 10v133z" />
    <glyph glyph-name="circumflex" unicode="&#x2c6;" horiz-adv-x="516" 
d="M342 1309l-86 143l-78 -143h-139l135 247h164l139 -247h-135z" />
    <glyph glyph-name="caron" unicode="&#x2c7;" horiz-adv-x="516" 
d="M178 1309l-139 247h137l82 -141l82 141h137l-135 -247h-164z" />
    <glyph glyph-name="breve" unicode="&#x2d8;" horiz-adv-x="505" 
d="M467 1509q-1 -104 -57.5 -160.5t-155.5 -56.5t-157 57t-58 160h98q0 -47 29 -74.5t88 -27.5q57 0 86 27.5t31 74.5h96z" />
    <glyph glyph-name="dotaccent" unicode="&#x2d9;" horiz-adv-x="286" 
d="M143 1294q-43 0 -73.5 30.5t-30.5 74.5t30.5 74t73.5 30q44 0 74.5 -30t30.5 -74t-30.5 -74.5t-74.5 -30.5z" />
    <glyph glyph-name="ring" unicode="&#x2da;" horiz-adv-x="387" 
d="M262 1419q0 29 -20 48.5t-49 19.5t-48.5 -19.5t-19.5 -48.5t19.5 -49t48.5 -20t49 20t20 49zM193 1264q-66 0 -110 44.5t-44 110.5t44 110t110 44t110.5 -44t44.5 -110t-44.5 -110.5t-110.5 -44.5z" />
    <glyph glyph-name="ogonek" unicode="&#x2db;" horiz-adv-x="540" 
d="M465 -389q-102 7 -161.5 65.5t-59.5 137.5q0 122 131 186h127q-55 -36 -86 -81t-31 -91q0 -95 137 -133z" />
    <glyph glyph-name="tilde" unicode="&#x2dc;" horiz-adv-x="530" 
d="M492 1470q-6 -74 -43 -117.5t-97 -43.5q-31 0 -76.5 18.5t-68.5 18.5q-20 0 -30.5 -7.5t-14.5 -29.5h-123q0 36 13 71t45 62.5t77 27.5q32 0 81 -17t67 -17q40 0 43 34h127z" />
    <glyph glyph-name="hungarumlaut" unicode="&#x2dd;" horiz-adv-x="475" 
d="M0 1309l90 241h176l-127 -241h-139zM244 1309l90 241h176l-127 -241h-139z" />
    <glyph glyph-name="tonos" unicode="&#x384;" horiz-adv-x="253" 
d="M0 1309l102 237h187l-160 -237h-129z" />
    <glyph glyph-name="dieresistonos" unicode="&#x385;" horiz-adv-x="772" 
d="M143 1298q-43 0 -73.5 31.5t-30.5 75.5q0 43 30.5 73.5t73.5 30.5q44 0 74.5 -30.5t30.5 -73.5q0 -44 -30.5 -75.5t-74.5 -31.5zM627 1298q-43 0 -74 31.5t-31 75.5q0 43 31 73.5t74 30.5q44 0 75 -30.5t31 -73.5q0 -44 -31 -75.5t-75 -31.5zM258 1270l94 270h176
l-141 -270h-129z" />
    <glyph glyph-name="Alphatonos" unicode="&#x386;" horiz-adv-x="804" 
d="M625 0l-43 369h-228l-43 -369h-168l211 1569h226l213 -1569h-168zM467 1337l-92 -811h186zM-10 1329l102 238h187l-160 -238h-129z" />
    <glyph glyph-name="Epsilontonos" unicode="&#x388;" horiz-adv-x="860" 
d="M-23 1329l103 238h186l-160 -238h-129zM319 0v1569h490v-164h-322v-533h308v-163h-308v-547h322v-162h-490z" />
    <glyph glyph-name="Etatonos" unicode="&#x389;" horiz-adv-x="964" 
d="M717 0v715h-230v-715h-168v1569h168v-692h230v692h168v-1569h-168zM-23 1329l103 238h186l-160 -238h-129z" />
    <glyph glyph-name="Iotatonos" unicode="&#x38a;" horiz-adv-x="567" 
d="M319 0v1569h168v-1569h-168zM-23 1329l103 238h186l-160 -238h-129z" />
    <glyph glyph-name="Omicrontonos" unicode="&#x38c;" horiz-adv-x="890" 
d="M-20 1329l102 238h186l-159 -238h-129zM252 1268q0 327 289 327q133 0 204.5 -75.5t71.5 -251.5v-967q0 -328 -282 -328q-62 0 -111.5 17t-89 53.5t-61 102t-21.5 155.5v967zM649 1282q0 79 -32.5 117.5t-81.5 38.5q-51 0 -83 -38t-32 -118v-995q0 -81 31.5 -118.5
t83.5 -37.5q49 0 81.5 38t32.5 118v995z" />
    <glyph glyph-name="Upsilontonos" unicode="&#x38e;" horiz-adv-x="1003" 
d="M18 1329l103 238h186l-160 -238h-129zM584 0v565l-242 1004h170l154 -738l157 738h170l-243 -1004v-565h-166z" />
    <glyph glyph-name="Omegatonos" unicode="&#x38f;" horiz-adv-x="894" 
d="M-18 1329l102 238h186l-159 -238h-129zM567 0v184q84 24 84 152v946q0 78 -32 117t-82 39q-51 0 -83 -39t-32 -117v-946q0 -128 84 -152v-184h-268v164l165 -12q-79 29 -114 101t-35 202v813q0 327 287 327q59 0 106 -15t87.5 -50t62.5 -101t22 -161v-813
q0 -130 -35 -202t-114 -101l166 12v-164h-269z" />
    <glyph glyph-name="iotadieresistonos" unicode="&#x390;" horiz-adv-x="362" 
d="M365 -6q-45 -10 -89 -10q-120 0 -165 68.5t-45 238.5v870h163v-882q0 -85 16.5 -117.5t73.5 -32.5q30 0 46 2v-137zM-90 1298q-43 0 -74 31.5t-31 75.5q0 43 31 73.5t74 30.5q44 0 74 -30.5t30 -73.5q0 -45 -30 -76t-74 -31zM393 1298q-43 0 -73.5 31.5t-30.5 75.5
q0 43 30.5 73.5t73.5 30.5q44 0 75.5 -30.5t31.5 -73.5q0 -44 -31.5 -75.5t-75.5 -31.5zM25 1270l94 270h176l-141 -270h-129z" />
    <glyph glyph-name="Alpha" unicode="&#x391;" horiz-adv-x="665" 
d="M489 0l-43 369h-227l-43 -369h-168l211 1569h225l213 -1569h-168zM332 1337l-92 -811h186z" />
    <glyph glyph-name="Beta" unicode="&#x392;" horiz-adv-x="708" 
d="M80 0v1569h282q139 0 206 -75.5t67 -250.5v-201q0 -186 -150 -237q88 -25 129 -91.5t41 -160.5v-225q0 -180 -69 -254t-211 -74h-295zM467 1251q0 85 -27 119.5t-88 34.5h-104v-522h104q61 0 88 35t27 120v213zM487 565q0 156 -135 156h-104v-559h125q61 0 87.5 35
t26.5 120v248z" />
    <glyph glyph-name="Gamma" unicode="&#x393;" horiz-adv-x="583" 
d="M80 0v1569h489v-164h-321v-1405h-168z" />
    <glyph glyph-name="uni0394" unicode="&#x394;" horiz-adv-x="665" 
d="M8 0l211 1569h225l213 -1569h-649zM332 1337l-135 -1175h272z" />
    <glyph glyph-name="Epsilon" unicode="&#x395;" horiz-adv-x="622" 
d="M80 0v1569h489v-164h-321v-533h307v-163h-307v-547h321v-162h-489z" />
    <glyph glyph-name="Zeta" unicode="&#x396;" horiz-adv-x="583" 
d="M29 0v162l327 1243h-309v164h506v-74l-352 -1333h352v-162h-524z" />
    <glyph glyph-name="Eta" unicode="&#x397;" horiz-adv-x="727" 
d="M477 0v715h-229v-715h-168v1569h168v-692h229v692h168v-1569h-168z" />
    <glyph glyph-name="Theta" unicode="&#x398;" horiz-adv-x="710" 
d="M72 1268q0 327 288 327q133 0 205 -75.5t72 -251.5v-967q0 -91 -22 -156.5t-61.5 -102t-89 -53t-110.5 -16.5q-282 0 -282 328v967zM469 1282q0 79 -33 117.5t-82 38.5q-51 0 -82.5 -38t-31.5 -118v-995q0 -81 31.5 -118.5t82.5 -37.5q49 0 82 38t33 118v995zM281 709
v163h149v-163h-149z" />
    <glyph glyph-name="Iota" unicode="&#x399;" horiz-adv-x="329" 
d="M80 0v1569h168v-1569h-168z" />
    <glyph glyph-name="Kappa" unicode="&#x39a;" horiz-adv-x="690" 
d="M539 0l-289 784l250 785h168l-238 -778l277 -791h-168zM80 0v1569h168v-1569h-168z" />
    <glyph glyph-name="Lambda" unicode="&#x39b;" horiz-adv-x="665" 
d="M489 0l-157 1337l-154 -1337h-170l211 1569h225l213 -1569h-168z" />
    <glyph glyph-name="Mu" unicode="&#x39c;" horiz-adv-x="1042" 
d="M793 0l6 1227l-217 -1227h-136l-204 1229l6 -1229h-168v1569h266l174 -1110l174 1110h267v-1569h-168z" />
    <glyph glyph-name="Nu" unicode="&#x39d;" horiz-adv-x="802" 
d="M520 0l-276 1071l4 -1071h-168v1569h192l285 -1090l-4 1090h168v-1569h-201z" />
    <glyph glyph-name="Xi" unicode="&#x39e;" horiz-adv-x="628" 
d="M41 0v168h545v-168h-545zM41 1401v168h545v-168h-545zM86 715v162h453v-162h-453z" />
    <glyph glyph-name="Omicron" unicode="&#x39f;" horiz-adv-x="710" 
d="M72 1268q0 327 288 327q133 0 205 -75.5t72 -251.5v-967q0 -91 -22 -156.5t-61.5 -102t-89 -53t-110.5 -16.5q-282 0 -282 328v967zM469 1282q0 79 -33 117.5t-82 38.5q-51 0 -82.5 -38t-31.5 -118v-995q0 -81 31.5 -118.5t82.5 -37.5q49 0 82 38t33 118v995z" />
    <glyph glyph-name="Pi" unicode="&#x3a0;" horiz-adv-x="727" 
d="M477 0v1405h-229v-1405h-168v1569h565v-1569h-168z" />
    <glyph glyph-name="Rho" unicode="&#x3a1;" horiz-adv-x="677" 
d="M80 0v1569h270q143 0 214 -72.5t71 -255.5v-256q0 -183 -68.5 -255.5t-210.5 -72.5h-108v-657h-168zM467 1249q0 85 -27 120.5t-88 35.5h-104v-584h104q61 0 88 35.5t27 120.5v272z" />
    <glyph glyph-name="Sigma" unicode="&#x3a3;" horiz-adv-x="598" 
d="M35 0v162l231 643l-235 600v164h524v-164h-348l235 -600l-231 -643h358v-162h-534z" />
    <glyph glyph-name="Tau" unicode="&#x3a4;" horiz-adv-x="589" 
d="M211 0v1405h-195v164h557v-164h-194v-1405h-168z" />
    <glyph glyph-name="Upsilon" unicode="&#x3a5;" horiz-adv-x="667" 
d="M250 0v565l-242 1004h170l154 -738l157 738h170l-243 -1004v-565h-166z" />
    <glyph glyph-name="Phi" unicode="&#x3a6;" horiz-adv-x="866" 
d="M348 -2v133q-160 12 -230.5 112t-70.5 287v506q0 187 70.5 287.5t230.5 112.5v135h168v-135q159 -13 230 -113.5t71 -286.5v-506q0 -186 -71 -286t-230 -113v-133h-168zM348 1274q-68 -11 -100.5 -68.5t-32.5 -134.5v-575q0 -77 32.5 -134.5t100.5 -68.5v981zM649 1071
q0 77 -33 134.5t-100 68.5v-981q67 11 100 68.5t33 134.5v575z" />
    <glyph glyph-name="Chi" unicode="&#x3a7;" horiz-adv-x="690" 
d="M522 0l-172 610l-192 -610h-168l272 807l-260 762h170l178 -559l166 559h170l-233 -764l237 -805h-168z" />
    <glyph glyph-name="Psi" unicode="&#x3a8;" horiz-adv-x="888" 
d="M360 -2v348q-159 10 -230 110t-71 285v828h168v-862q0 -50 12 -91.5t43.5 -73t77.5 -34.5v1061h168v-1061q67 4 100.5 62.5t33.5 136.5v862h167v-828q0 -187 -71 -286t-230 -109v-348h-168z" />
    <glyph glyph-name="uni03A9" unicode="&#x3a9;" horiz-adv-x="716" 
d="M389 0v184q84 24 84 152v946q0 78 -32 117t-83 39q-50 0 -82 -39t-32 -117v-946q0 -128 84 -152v-184h-269v164l166 -12q-79 29 -114 101t-35 202v813q0 327 286 327q279 0 279 -327v-813q0 -130 -35 -202t-114 -101l165 12v-164h-268z" />
    <glyph glyph-name="Iotadieresis" unicode="&#x3aa;" horiz-adv-x="329" 
d="M82 0v1569h168v-1569h-168zM10 1696q-43 0 -73.5 31t-30.5 75q0 43 30.5 74t73.5 31q44 0 74.5 -31t30.5 -74q0 -44 -30.5 -75t-74.5 -31zM319 1696q-43 0 -73.5 31t-30.5 75q0 43 30.5 74t73.5 31q44 0 74.5 -31t30.5 -74q0 -44 -30.5 -75t-74.5 -31z" />
    <glyph glyph-name="Upsilondieresis" unicode="&#x3ab;" horiz-adv-x="667" 
d="M250 0v565l-242 1004h170l154 -738l157 738h170l-243 -1004v-565h-166zM178 1696q-43 0 -73.5 31t-30.5 75q0 43 30.5 74t73.5 31q44 0 74.5 -31t30.5 -74q0 -44 -30.5 -75t-74.5 -31zM487 1696q-43 0 -73.5 31t-30.5 75q0 43 30.5 74t73.5 31q44 0 74.5 -31t30.5 -74
q0 -44 -30.5 -75t-74.5 -31z" />
    <glyph glyph-name="alphatonos" unicode="&#x3ac;" horiz-adv-x="606" 
d="M401 0l-18 94q-59 -110 -166 -110q-90 0 -123 71t-33 242v567q0 171 33 242.5t123 71.5q107 0 166 -111l18 94h136v-1161h-136zM373 858q0 93 -19 129.5t-59 36.5t-55 -35t-15 -119v-579q0 -87 15 -121.5t55 -34.5t59 37.5t19 128.5v557zM197 1309l102 237h186l-159 -237
h-129z" />
    <glyph glyph-name="epsilontonos" unicode="&#x3ad;" horiz-adv-x="569" 
d="M197 1309l102 237h186l-159 -237h-129zM526 268q0 -152 -59.5 -218t-175.5 -66q-119 0 -179.5 64t-60.5 208v66q0 40 1 65t5.5 55.5t14.5 49.5t26 39t41 34t60 25q-41 11 -69.5 30.5t-44 40.5t-23 55.5t-9.5 63.5t-2 78v55q0 265 242 265q115 0 174 -66t59 -219v-35h-164
v41q0 125 -73 125q-39 0 -56.5 -29t-17.5 -94v-100q0 -40 15.5 -69t39 -42t43.5 -18.5t37 -5.5q47 0 90 2v-156q-43 2 -92 2q-14 0 -29 -3t-34.5 -12t-34 -23t-25 -39t-10.5 -58v-107q0 -73 16.5 -104t57.5 -31q38 0 55.5 31.5t17.5 103.5v80h164v-84z" />
    <glyph glyph-name="etatonos" unicode="&#x3ae;" 
d="M381 0v870q0 84 -15 119t-55 35t-59 -36.5t-19 -129.5v-858h-163v1161h137l18 -94q59 111 166 111q89 0 121.5 -71t32.5 -243v-864h-164zM205 1309l102 237h187l-160 -237h-129z" />
    <glyph glyph-name="iotatonos" unicode="&#x3af;" horiz-adv-x="362" 
d="M365 -6q-45 -10 -89 -10q-120 0 -165 68.5t-45 238.5v870h163v-882q0 -85 16.5 -117.5t73.5 -32.5q30 0 46 2v-137zM61 1309l103 237h186l-160 -237h-129z" />
    <glyph glyph-name="upsilondieresistonos" unicode="&#x3b0;" horiz-adv-x="606" 
d="M377 1161h164v-893q0 -154 -60 -219t-178 -65q-120 0 -178.5 65.5t-58.5 218.5v893h163v-889q0 -73 16.5 -104t57.5 -31q39 0 56.5 32t17.5 103v889zM59 1298q-43 0 -73.5 31.5t-30.5 75.5q0 43 30.5 73.5t73.5 30.5q44 0 74.5 -30.5t30.5 -73.5q0 -44 -30.5 -75.5
t-74.5 -31.5zM543 1298q-43 0 -74 31.5t-31 75.5q0 43 31 73.5t74 30.5q44 0 75 -30.5t31 -73.5q0 -44 -31 -75.5t-75 -31.5zM174 1270l94 270h176l-141 -270h-129z" />
    <glyph glyph-name="alpha" unicode="&#x3b1;" horiz-adv-x="606" 
d="M401 0l-18 94q-59 -110 -166 -110q-90 0 -123 71t-33 242v567q0 171 33 242.5t123 71.5q107 0 166 -111l18 94h136v-1161h-136zM373 858q0 93 -19 129.5t-59 36.5t-55 -35t-15 -119v-579q0 -87 15 -121.5t55 -34.5t59 37.5t19 128.5v557z" />
    <glyph glyph-name="beta" unicode="&#x3b2;" horiz-adv-x="618" 
d="M68 -408v1633q0 194 51 275t184 81t186.5 -76t53.5 -250v-67q0 -121 -29 -183t-102 -85q76 -17 113.5 -80t37.5 -178v-383q0 -156 -41 -225.5t-133 -69.5q-45 0 -78.5 16t-48.5 33t-31 43v-484h-163zM399 578q0 59 -4.5 101.5t-16 81.5t-35 61t-58.5 26v133q58 10 76 58
t18 151v63q0 34 -0.5 50t-2.5 40.5t-6.5 36t-12 24.5t-20 18t-30.5 5q-42 0 -59 -32.5t-17 -98.5v-995q0 -166 95 -166q42 0 57.5 33t15.5 123v287z" />
    <glyph glyph-name="gamma" unicode="&#x3b3;" horiz-adv-x="548" 
d="M190 -406l7 402l-189 1165h172l92 -870l95 870h172l-191 -1165l6 -402h-164z" />
    <glyph glyph-name="delta" unicode="&#x3b4;" horiz-adv-x="581" 
d="M532 311q0 -182 -54 -254.5t-183 -72.5q-127 0 -182.5 75t-55.5 258v484q0 94 23.5 144.5t75.5 82.5q-80 94 -80 242q0 166 78.5 239.5t205.5 73.5q67 0 146 -20l-37 -154q-67 23 -109 23q-54 0 -86 -37t-32 -115q0 -52 16 -93.5t41.5 -71t56.5 -58.5t62 -63.5t56.5 -77
t41.5 -108.5t16 -149v-348zM369 651q0 91 -23 149t-74 107q-33 -10 -42 -47.5t-9 -128.5v-414q0 -103 13.5 -141.5t58.5 -38.5q41 0 58.5 31t17.5 104v379z" />
    <glyph glyph-name="epsilon" unicode="&#x3b5;" horiz-adv-x="569" 
d="M526 268q0 -152 -59.5 -218t-175.5 -66q-119 0 -179.5 64t-60.5 208v66q0 40 1 65t5.5 55.5t14.5 49.5t26 39t41 34t60 25q-41 11 -69.5 30.5t-44 40.5t-23 55.5t-9.5 63.5t-2 78v55q0 265 242 265q115 0 174 -66t59 -219v-35h-164v41q0 125 -73 125q-39 0 -56.5 -29
t-17.5 -94v-100q0 -40 15.5 -69t39 -42t43.5 -18.5t37 -5.5q47 0 90 2v-156q-43 2 -92 2q-14 0 -29 -3t-34.5 -12t-34 -23t-25 -39t-10.5 -58v-107q0 -73 16.5 -104t57.5 -31q38 0 55.5 31.5t17.5 103.5v80h164v-84z" />
    <glyph glyph-name="zeta" unicode="&#x3b6;" horiz-adv-x="538" 
d="M279 -199q35 61 45 86t10 45q0 30 -14.5 44t-57.5 32q-54 24 -80.5 37t-61 38t-50 51.5t-26.5 69t-11 99.5q0 162 81 334t246 373h-301v151h478v-160q-338 -416 -338 -675q0 -20 2.5 -37.5t5 -31t10.5 -26t13 -20.5t18 -17.5t20 -14.5t25.5 -13.5t27 -12t32.5 -13
t34 -13.5q119 -49 119 -152q0 -93 -107 -249z" />
    <glyph glyph-name="eta" unicode="&#x3b7;" 
d="M381 0v870q0 84 -15 119t-55 35t-59 -36.5t-19 -129.5v-858h-163v1161h137l18 -94q59 111 166 111q89 0 121.5 -71t32.5 -243v-864h-164z" />
    <glyph glyph-name="theta" unicode="&#x3b8;" horiz-adv-x="608" 
d="M66 1202q0 213 50.5 295t182.5 82q121 0 181.5 -65.5t60.5 -219.5v-934q0 -213 -52 -294.5t-182 -81.5q-122 0 -181.5 65t-59.5 219v934zM377 1290q0 71 -17.5 103t-56.5 32q-47 0 -60.5 -40t-13.5 -146v-383h148v434zM377 705h-148v-390q0 -101 13.5 -139.5t58.5 -38.5
q41 0 58.5 31t17.5 104v433z" />
    <glyph glyph-name="iota" unicode="&#x3b9;" horiz-adv-x="362" 
d="M365 -6q-45 -10 -89 -10q-120 0 -165 68.5t-45 238.5v870h163v-882q0 -85 16.5 -117.5t73.5 -32.5q30 0 46 2v-137z" />
    <glyph glyph-name="kappa" unicode="&#x3ba;" horiz-adv-x="612" 
d="M444 0l-208 594l208 567h168l-200 -561l198 -600h-166zM70 0v1161h163v-1161h-163z" />
    <glyph glyph-name="lambda" unicode="&#x3bb;" horiz-adv-x="745" 
d="M748 -2q-43 -14 -82 -14q-70 0 -112.5 51.5t-72.5 165.5l-129 512l-190 -713h-178l299 987l-72 301q-19 80 -37.5 111t-50.5 31q-33 0 -62 -11l-20 150q68 14 121 14q76 0 122 -47.5t74 -165.5l273 -1089q6 -25 8.5 -35t9.5 -32.5t12.5 -33t14.5 -24.5t19.5 -19.5
t23.5 -5.5q14 0 24 6z" />
    <glyph glyph-name="uni03BC" unicode="&#x3bc;" horiz-adv-x="614" 
d="M70 -408v1569h163v-887q0 -74 16 -106.5t54 -32.5q40 0 59 37.5t19 128.5v860h164v-1161h-135l-19 94q-17 -38 -47.5 -69t-67.5 -31q-16 0 -43 10v-412h-163z" />
    <glyph glyph-name="nu" unicode="&#x3bd;" horiz-adv-x="563" 
d="M174 0l-158 1161h172l93 -962l94 962h172l-156 -1161h-217z" />
    <glyph glyph-name="xi" unicode="&#x3be;" horiz-adv-x="534" 
d="M307 -201q58 100 58 133q0 23 -12.5 36t-59.5 36q-20 10 -51.5 25t-46 22t-37.5 20t-33 22t-25 24.5t-21 31.5t-13 38.5t-9 50t-2 61.5v287q0 40 1 65t5.5 55.5t14.5 49.5t26 39t41 34t60 25q-41 11 -69.5 30.5t-44 40.5t-23 55.5t-9.5 63.5t-2 78v195q0 264 242 264
q115 0 174 -66t59 -219v-34h-163v41q0 67 -16.5 95.5t-57.5 28.5q-38 0 -56 -28.5t-18 -93.5v-240q0 -40 15.5 -69t39 -42t43.5 -18.5t37 -5.5q47 0 90 2v-156q-43 2 -92 2q-14 0 -29 -3t-34.5 -12t-34 -23t-25 -39t-10.5 -58v-297q0 -39 6.5 -67.5t15 -45.5t29.5 -32
t37 -23t51.5 -23.5t59.5 -27.5q29 -15 45.5 -26t38 -29.5t31.5 -42.5t10 -54q0 -98 -113 -249z" />
    <glyph glyph-name="omicron" unicode="&#x3bf;" horiz-adv-x="600" 
d="M537 268q0 -154 -60 -219t-178 -65q-120 0 -179 65.5t-59 218.5v625q0 153 59 219t179 66q118 0 178 -65.5t60 -219.5v-625zM373 889q0 73 -17.5 104t-58.5 31q-46 0 -59 -40t-13 -148v-564q0 -73 16.5 -104t57.5 -31q39 0 56.5 32t17.5 103v617z" />
    <glyph glyph-name="pi" unicode="&#x3c0;" horiz-adv-x="614" 
d="M381 0v1010h-148v-1010h-163v1161h475v-1161h-164z" />
    <glyph glyph-name="rho" unicode="&#x3c1;" horiz-adv-x="604" 
d="M66 -408v1301q0 153 58.5 219t178.5 66q118 0 178 -65.5t60 -219.5v-596q0 -171 -33 -242t-123 -71q-43 0 -76 16.5t-48.5 34t-31.5 43.5v-486h-163zM377 889q0 71 -17.5 103t-56.5 32q-41 0 -57.5 -31t-16.5 -104v-588q0 -91 19 -128.5t59 -37.5t55 34.5t15 121.5v598z
" />
    <glyph glyph-name="sigma1" unicode="&#x3c2;" horiz-adv-x="577" 
d="M311 -201q58 100 58 133q0 23 -12.5 36t-59.5 36q-20 10 -51.5 25t-46 22t-37.5 20t-33 22t-25 24.5t-21 31.5t-13 38.5t-9 50t-2 61.5v594q0 153 60 219t180 66q118 0 177 -65.5t59 -219.5v-158h-164v154q0 73 -16.5 104t-57.5 31q-39 0 -56.5 -32t-17.5 -103v-543
q0 -39 6.5 -67.5t15 -45.5t29.5 -32t37 -23t51.5 -23.5t59.5 -27.5q29 -15 45.5 -26t38 -29.5t31.5 -42.5t10 -54q0 -98 -113 -249z" />
    <glyph glyph-name="sigma" unicode="&#x3c3;" horiz-adv-x="626" 
d="M537 317q0 -186 -54 -259.5t-184 -73.5q-127 0 -182.5 75t-55.5 258v510q0 185 55.5 259.5t182.5 74.5h309v-151l-112 8q41 -52 41 -131v-570zM373 819q0 108 -13.5 148.5t-60.5 40.5q-48 0 -61 -40t-13 -149v-493q0 -108 13 -148.5t59 -40.5q41 0 58.5 31t17.5 104v547z
" />
    <glyph glyph-name="tau" unicode="&#x3c4;" horiz-adv-x="557" 
d="M487 -6q-45 -10 -88 -10q-121 0 -166 69t-45 238v719h-186v151h539v-151h-189v-731q0 -84 17.5 -117t74.5 -33q27 0 43 2v-137z" />
    <glyph glyph-name="upsilon" unicode="&#x3c5;" horiz-adv-x="608" 
d="M377 1161h164v-893q0 -154 -60 -219t-178 -65q-120 0 -178.5 65.5t-58.5 218.5v893h163v-889q0 -73 16.5 -104t57.5 -31q39 0 56.5 32t17.5 103v889z" />
    <glyph glyph-name="phi" unicode="&#x3c6;" horiz-adv-x="833" 
d="M340 -406v394q-281 30 -281 329v539q0 182 101 262l110 -104q-47 -57 -47 -164v-537q0 -149 117 -168v1031h121q165 0 242 -86t77 -236v-537q0 -298 -280 -329v-394h-160zM616 848q0 151 -116 168v-871q116 19 116 168v535z" />
    <glyph glyph-name="chi" unicode="&#x3c7;" horiz-adv-x="567" 
d="M401 0l-125 408l-108 -408h-160l182 594l-180 567h162l113 -373l108 373h166l-188 -569l192 -592h-162z" />
    <glyph glyph-name="psi" unicode="&#x3c8;" horiz-adv-x="849" 
d="M344 -406v394q-281 30 -281 329v844h164v-848q0 -149 117 -168v1016h160v-1016q117 19 117 168v848h163v-844q0 -298 -280 -329v-394h-160z" />
    <glyph glyph-name="omega" unicode="&#x3c9;" horiz-adv-x="905" 
d="M680 889q0 72 -16.5 103t-57.5 32v154q120 -2 179 -67t59 -218v-625q0 -153 -58 -218.5t-168 -65.5q-118 0 -167 86q-47 -86 -164 -86q-112 0 -171 66t-59 218v625q0 153 59 218t179 67v-154q-41 -1 -57.5 -32t-16.5 -103v-617q0 -71 17.5 -103t56.5 -32t56.5 29t17.5 94
v594h163v-594q0 -65 18 -94t56 -29q41 0 57.5 31t16.5 104v617z" />
    <glyph glyph-name="iotadieresis" unicode="&#x3ca;" horiz-adv-x="362" 
d="M367 -6q-45 -10 -88 -10q-121 0 -166 69t-45 238v870h163v-882q0 -84 17 -117t74 -33q29 0 45 2v-137zM-6 1288q-43 0 -74 31.5t-31 75.5q0 43 31 73.5t74 30.5q44 0 74 -30.5t30 -73.5q0 -45 -30 -76t-74 -31zM303 1288q-43 0 -73.5 31.5t-30.5 75.5q0 43 30.5 73.5
t73.5 30.5q44 0 74.5 -30.5t30.5 -73.5q0 -44 -30.5 -75.5t-74.5 -31.5z" />
    <glyph glyph-name="upsilondieresis" unicode="&#x3cb;" horiz-adv-x="606" 
d="M377 1161h164v-893q0 -154 -60 -219t-178 -65q-120 0 -178.5 65.5t-58.5 218.5v893h163v-889q0 -73 16.5 -104t57.5 -31q39 0 56.5 32t17.5 103v889zM147 1288q-43 0 -73.5 31.5t-30.5 75.5q0 43 30.5 73.5t73.5 30.5q44 0 74.5 -30.5t30.5 -73.5q0 -44 -30.5 -75.5
t-74.5 -31.5zM457 1288q-43 0 -74 31.5t-31 75.5q0 43 31 73.5t74 30.5q44 0 74 -30.5t30 -73.5q0 -45 -30 -76t-74 -31z" />
    <glyph glyph-name="omicrontonos" unicode="&#x3cc;" horiz-adv-x="600" 
d="M205 1309l102 237h187l-160 -237h-129zM537 268q0 -154 -60 -219t-178 -65q-120 0 -179 65.5t-59 218.5v625q0 153 59 219t179 66q118 0 178 -65.5t60 -219.5v-625zM373 889q0 73 -17.5 104t-58.5 31q-46 0 -59 -40t-13 -148v-564q0 -73 16.5 -104t57.5 -31q39 0 56.5 32
t17.5 103v617z" />
    <glyph glyph-name="upsilontonos" unicode="&#x3cd;" horiz-adv-x="608" 
d="M213 1309l102 237h187l-160 -237h-129zM377 1161h164v-893q0 -154 -60 -219t-178 -65q-120 0 -178.5 65.5t-58.5 218.5v893h163v-889q0 -73 16.5 -104t57.5 -31q39 0 56.5 32t17.5 103v889z" />
    <glyph glyph-name="omegatonos" unicode="&#x3ce;" horiz-adv-x="905" 
d="M680 889q0 72 -16.5 103t-57.5 32v154q120 -2 179 -67t59 -218v-625q0 -153 -58 -218.5t-168 -65.5q-118 0 -167 86q-47 -86 -164 -86q-112 0 -171 66t-59 218v625q0 153 59 218t179 67v-154q-41 -1 -57.5 -32t-16.5 -103v-617q0 -71 17.5 -103t56.5 -32t56.5 29t17.5 94
v594h163v-594q0 -65 18 -94t56 -29q41 0 57.5 31t16.5 104v617zM369 1309l102 237h186l-159 -237h-129z" />
    <glyph glyph-name="uni0401" unicode="&#x401;" horiz-adv-x="622" 
d="M82 0v1569h489v-164h-321v-533h307v-163h-307v-547h321v-162h-489zM166 1696q-43 0 -74 31t-31 75q0 43 31 74t74 31q44 0 74 -31t30 -74q0 -44 -30 -75t-74 -31zM475 1696q-43 0 -73.5 31t-30.5 75q0 43 30.5 74t73.5 31q44 0 74.5 -31t30.5 -74q0 -44 -30.5 -75
t-74.5 -31z" />
    <glyph glyph-name="uni0402" unicode="&#x402;" horiz-adv-x="806" 
d="M479 141q52 0 85.5 37.5t33.5 118.5v301q0 97 -29 131.5t-94 34.5q-57 0 -96 -27v-737h-168v1405h-195v164h598v-164h-235v-500q60 25 129 25q129 0 193.5 -76t64.5 -270v-273q0 -327 -287 -327v157z" />
    <glyph glyph-name="uni0403" unicode="&#x403;" horiz-adv-x="583" 
d="M233 1716l103 238h186l-160 -238h-129zM80 0v1569h489v-164h-321v-1405h-168z" />
    <glyph glyph-name="uni0404" unicode="&#x404;" horiz-adv-x="688" 
d="M637 301q0 -328 -283 -328q-282 0 -282 334v955q0 177 74 255t210 78q281 0 281 -321v-152h-168v160q0 80 -33.5 118t-85.5 38q-56 0 -83 -49t-27 -156v-361h295v-163h-295v-422q0 -80 31.5 -118t82.5 -38t83 38t32 118v153h168v-139z" />
    <glyph glyph-name="uni0405" unicode="&#x405;" horiz-adv-x="681" 
d="M623 311q0 -338 -281 -338q-285 0 -285 338v213h168v-237q0 -81 32.5 -118.5t84.5 -37.5q113 0 113 191v135q0 40 -22 80.5t-57 76.5t-77.5 74.5t-85 81t-77.5 88t-57 103.5t-22 120v199q0 90 25 154.5t68.5 98t91 48t104.5 14.5q56 0 102.5 -14.5t87.5 -48t64 -98.5
t23 -156v-256h-168v260q0 81 -32.5 118.5t-84.5 37.5q-113 0 -113 -193v-135q0 -60 29.5 -115t73.5 -95.5t96 -87t96 -89.5t73.5 -104.5t29.5 -129.5v-178z" />
    <glyph glyph-name="uni0406" unicode="&#x406;" horiz-adv-x="329" 
d="M80 0v1569h168v-1569h-168z" />
    <glyph glyph-name="uni0407" unicode="&#x407;" horiz-adv-x="329" 
d="M82 0v1569h168v-1569h-168zM10 1696q-43 0 -73.5 31t-30.5 75q0 43 30.5 74t73.5 31q44 0 74.5 -31t30.5 -74q0 -44 -30.5 -75t-74.5 -31zM319 1696q-43 0 -73.5 31t-30.5 75q0 43 30.5 74t73.5 31q44 0 74.5 -31t30.5 -74q0 -44 -30.5 -75t-74.5 -31z" />
    <glyph glyph-name="uni0408" unicode="&#x408;" horiz-adv-x="329" 
d="M-39 -393v157h4q48 0 81.5 38t33.5 118v1649h168v-1635q0 -92 -25 -158.5t-67.5 -101.5t-89.5 -51t-101 -16h-4z" />
    <glyph glyph-name="uni0409" unicode="&#x409;" horiz-adv-x="1107" 
d="M512 0v1405h-209v-1114q0 -74 -17 -131t-44 -91t-65 -56t-76 -30t-81 -8h-8v158h8q48 0 81.5 38t33.5 118v1280h545v-660h108q70 0 119.5 -15.5t86.5 -52t55 -101t18 -158.5v-254q0 -183 -71 -255.5t-214 -72.5h-270zM899 592q0 85 -27 120.5t-88 35.5h-104v-586h104
q61 0 88 35t27 120v275z" />
    <glyph glyph-name="uni040A" unicode="&#x40a;" horiz-adv-x="1075" 
d="M477 0v745h-229v-745h-168v1569h168v-660h229v660h168v-660h109q142 0 210 -72t68 -255v-254q0 -94 -19 -159t-57 -101.5t-88 -52t-120 -15.5h-271zM864 590q0 85 -26.5 120t-87.5 35h-105v-583h105q61 0 87.5 35t26.5 120v273z" />
    <glyph glyph-name="uni040B" unicode="&#x40b;" horiz-adv-x="813" 
d="M598 0v598q0 97 -29 131.5t-94 34.5q-57 0 -96 -27v-737h-168v1405h-195v164h598v-164h-235v-500q60 25 129 25q129 0 193.5 -76t64.5 -270v-584h-168z" />
    <glyph glyph-name="uni040C" unicode="&#x40c;" horiz-adv-x="675" 
d="M276 1700l103 237h186l-159 -237h-130zM494 0q-19 350 -244 784q215 433 223 785h168q-8 -353 -211 -778q222 -447 232 -791h-168zM80 0v1569h168v-1569h-168z" />
    <glyph glyph-name="uni040E" unicode="&#x40e;" horiz-adv-x="780" 
d="M608 1862q-1 -104 -57.5 -160.5t-155.5 -56.5t-157 57t-58 160h99q0 -47 28.5 -75t87.5 -28q57 0 86 28t31 75h96zM53 0l219 575l-288 994h170l208 -756l279 756h170l-590 -1569h-168z" />
    <glyph glyph-name="uni040F" unicode="&#x40f;" horiz-adv-x="727" 
d="M442 0v-217h-155v217h-207v1569h168v-1407h229v1407h168v-1569h-203z" />
    <glyph glyph-name="uni0410" unicode="&#x410;" horiz-adv-x="665" 
d="M489 0l-43 369h-227l-43 -369h-168l211 1569h225l213 -1569h-168zM332 1337l-92 -811h186z" />
    <glyph glyph-name="uni0411" unicode="&#x411;" horiz-adv-x="677" 
d="M80 0v1569h489v-164h-321v-496h108q70 0 119.5 -15.5t86.5 -52t55 -101t18 -158.5v-254q0 -183 -71 -255.5t-214 -72.5h-270zM467 592q0 85 -27 120.5t-88 35.5h-104v-586h104q61 0 88 35t27 120v275z" />
    <glyph glyph-name="uni0412" unicode="&#x412;" horiz-adv-x="708" 
d="M80 0v1569h282q139 0 206 -75.5t67 -250.5v-201q0 -186 -150 -237q88 -25 129 -91.5t41 -160.5v-225q0 -180 -69 -254t-211 -74h-295zM467 1251q0 85 -27 119.5t-88 34.5h-104v-522h104q61 0 88 35t27 120v213zM487 565q0 156 -135 156h-104v-559h125q61 0 87.5 35
t26.5 120v248z" />
    <glyph glyph-name="uni0413" unicode="&#x413;" horiz-adv-x="583" 
d="M80 0v1569h489v-164h-321v-1405h-168z" />
    <glyph glyph-name="uni0414" unicode="&#x414;" horiz-adv-x="845" 
d="M674 -217v217h-502v-217h-156v358q75 30 102 91t32 194l38 1143h545v-1407h96v-379h-155zM565 1405h-209l-37 -1016q-5 -82 -24.5 -134.5t-65.5 -92.5h336v1243z" />
    <glyph glyph-name="uni0415" unicode="&#x415;" horiz-adv-x="622" 
d="M80 0v1569h489v-164h-321v-533h307v-163h-307v-547h321v-162h-489z" />
    <glyph glyph-name="uni0416" unicode="&#x416;" horiz-adv-x="1024" 
d="M840 0q-19 354 -242 784q213 429 221 785h168q-3 -345 -209 -778q219 -442 230 -791h-168zM428 0v1569h168v-1569h-168zM14 0q10 344 232 791q-203 425 -211 778h168q8 -352 223 -785q-225 -434 -244 -784h-168z" />
    <glyph glyph-name="uni0417" unicode="&#x417;" horiz-adv-x="677" 
d="M616 293q0 -164 -74.5 -242t-205.5 -78t-208 78.5t-77 239.5v149h168v-153q0 -81 32.5 -118.5t84.5 -37.5q56 0 84.5 45.5t28.5 147.5v266q0 135 -160 135q-29 0 -107 -4v166q29 -4 127 -4q67 0 103.5 31.5t36.5 111.5v256q0 80 -32.5 118t-80.5 38q-49 0 -83 -37
t-34 -117v-162h-168v158q0 161 76.5 238t210.5 77q129 0 203.5 -75.5t74.5 -237.5v-209q0 -113 -31.5 -174t-127.5 -94q96 -30 127.5 -92t31.5 -176v-244z" />
    <glyph glyph-name="uni0418" unicode="&#x418;" horiz-adv-x="802" 
d="M553 0l4 1071l-274 -1071h-203v1569h168l-4 -1090l286 1090h191v-1569h-168z" />
    <glyph glyph-name="uni0419" unicode="&#x419;" horiz-adv-x="802" 
d="M616 1868q-1 -104 -57.5 -160.5t-155.5 -56.5t-157 57t-58 160h99q0 -47 28.5 -75t87.5 -28q57 0 86 28t31 75h96zM553 0l4 1071l-274 -1071h-203v1569h168l-4 -1090l286 1090h191v-1569h-168z" />
    <glyph glyph-name="uni041A" unicode="&#x41a;" horiz-adv-x="675" 
d="M494 0q-19 350 -244 784q215 433 223 785h168q-8 -353 -211 -778q222 -447 232 -791h-168zM80 0v1569h168v-1569h-168z" />
    <glyph glyph-name="uni041B" unicode="&#x41b;" horiz-adv-x="780" 
d="M532 0v1405h-229v-1114q0 -74 -17 -131t-44 -91t-65 -56t-76 -30t-81 -8h-8v158h8q48 0 81.5 38t33.5 118v1280h565v-1569h-168z" />
    <glyph glyph-name="uni041C" unicode="&#x41c;" horiz-adv-x="1042" 
d="M793 0l6 1227l-217 -1227h-136l-204 1229l6 -1229h-168v1569h266l174 -1110l174 1110h267v-1569h-168z" />
    <glyph glyph-name="uni041D" unicode="&#x41d;" horiz-adv-x="727" 
d="M477 0v715h-229v-715h-168v1569h168v-692h229v692h168v-1569h-168z" />
    <glyph glyph-name="uni041E" unicode="&#x41e;" horiz-adv-x="710" 
d="M72 1268q0 327 288 327q133 0 205 -75.5t72 -251.5v-967q0 -91 -22 -156.5t-61.5 -102t-89 -53t-110.5 -16.5q-282 0 -282 328v967zM469 1282q0 79 -33 117.5t-82 38.5q-51 0 -82.5 -38t-31.5 -118v-995q0 -81 31.5 -118.5t82.5 -37.5q49 0 82 38t33 118v995z" />
    <glyph glyph-name="uni041F" unicode="&#x41f;" horiz-adv-x="727" 
d="M477 0v1405h-229v-1405h-168v1569h565v-1569h-168z" />
    <glyph glyph-name="uni0420" unicode="&#x420;" horiz-adv-x="677" 
d="M80 0v1569h270q143 0 214 -72.5t71 -255.5v-256q0 -183 -68.5 -255.5t-210.5 -72.5h-108v-657h-168zM467 1249q0 85 -27 120.5t-88 35.5h-104v-584h104q61 0 88 35.5t27 120.5v272z" />
    <glyph glyph-name="uni0421" unicode="&#x421;" horiz-adv-x="692" 
d="M637 301q0 -91 -22 -156.5t-61.5 -102t-89 -53t-110.5 -16.5q-282 0 -282 328v967q0 327 286 327q279 0 279 -321v-252h-168v260q0 80 -32.5 118t-84.5 38q-60 0 -86 -51t-26 -164v-936q0 -81 32 -118.5t84 -37.5q113 0 113 201v192h168v-223z" />
    <glyph glyph-name="uni0422" unicode="&#x422;" horiz-adv-x="589" 
d="M211 0v1405h-195v164h557v-164h-194v-1405h-168z" />
    <glyph glyph-name="uni0423" unicode="&#x423;" horiz-adv-x="780" 
d="M53 0l219 575l-288 994h170l208 -756l279 756h170l-590 -1569h-168z" />
    <glyph glyph-name="uni0424" unicode="&#x424;" horiz-adv-x="866" 
d="M348 -2v133q-160 12 -230.5 112t-70.5 287v506q0 187 70.5 287.5t230.5 112.5v135h168v-135q159 -13 230 -113.5t71 -286.5v-506q0 -186 -71 -286t-230 -113v-133h-168zM348 1274q-68 -11 -100.5 -68.5t-32.5 -134.5v-575q0 -77 32.5 -134.5t100.5 -68.5v981zM649 1071
q0 77 -33 134.5t-100 68.5v-981q67 11 100 68.5t33 134.5v575z" />
    <glyph glyph-name="uni0425" unicode="&#x425;" horiz-adv-x="690" 
d="M522 0l-172 610l-192 -610h-168l272 807l-260 762h170l178 -559l166 559h170l-233 -764l237 -805h-168z" />
    <glyph glyph-name="uni0426" unicode="&#x426;" horiz-adv-x="778" 
d="M606 -217v217h-526v1569h168v-1407h229v1407h168v-1407h117v-379h-156z" />
    <glyph glyph-name="uni0427" unicode="&#x427;" horiz-adv-x="684" 
d="M436 0v662q-55 -23 -123 -23q-65 0 -111 15.5t-82 53.5t-53.5 107t-17.5 170v584h168v-598q0 -97 30.5 -131.5t96.5 -34.5q58 0 92 24v740h168v-1569h-168z" />
    <glyph glyph-name="uni0428" unicode="&#x428;" horiz-adv-x="1083" 
d="M1001 0h-921v1569h168v-1407h209v1407h168v-1407h209v1407h167v-1569z" />
    <glyph glyph-name="uni0429" unicode="&#x429;" horiz-adv-x="1134" 
d="M1001 162h117v-379h-155v217h-883v1569h168v-1407h209v1407h168v-1407h209v1407h167v-1407z" />
    <glyph glyph-name="uni042A" unicode="&#x42a;" horiz-adv-x="931" 
d="M336 0v1405h-322v164h490v-660h108q70 0 119.5 -15.5t86.5 -52t55 -101t18 -158.5v-254q0 -183 -71 -255.5t-214 -72.5h-270zM723 592q0 85 -27 120.5t-88 35.5h-104v-586h104q61 0 88 35t27 120v275z" />
    <glyph glyph-name="uni042B" unicode="&#x42b;" horiz-adv-x="1038" 
d="M467 592q0 85 -27 120.5t-88 35.5h-104v-586h104q61 0 88 35t27 120v275zM80 0v1569h168v-660h71q53 0 92 -4.5t77 -17t63.5 -35.5t45 -58.5t29 -88.5t9.5 -123v-254q0 -183 -71 -255.5t-214 -72.5h-270zM788 0v1569h168v-1569h-168z" />
    <glyph glyph-name="uni042C" unicode="&#x42c;" horiz-adv-x="677" 
d="M467 592q0 85 -27 120.5t-88 35.5h-104v-586h104q61 0 88 35t27 120v275zM80 0v1569h168v-660h71q53 0 92 -4.5t77 -17t63.5 -35.5t45 -58.5t29 -88.5t9.5 -123v-254q0 -183 -71 -255.5t-214 -72.5h-270z" />
    <glyph glyph-name="uni042D" unicode="&#x42d;" horiz-adv-x="688" 
d="M614 307q0 -334 -280 -334q-285 0 -285 328v139h168v-153q0 -81 32.5 -118.5t86.5 -37.5q58 0 84 48t26 157v373h-294v163h294v408q0 82 -30.5 120t-81.5 38q-50 0 -83.5 -38t-33.5 -118v-160h-168v152q0 321 281 321q136 0 210 -78t74 -255v-955z" />
    <glyph glyph-name="uni042E" unicode="&#x42e;" horiz-adv-x="1071" 
d="M80 0v1569h168v-697h184v396q0 327 289 327q135 0 205.5 -75.5t70.5 -251.5v-967q0 -328 -280 -328q-62 0 -111.5 17t-89.5 53.5t-62 102t-22 155.5v408h-184v-709h-168zM829 1282q0 80 -31.5 118t-82.5 38q-49 0 -82 -38.5t-33 -117.5v-995q0 -80 33 -118t82 -38
q51 0 82.5 37.5t31.5 118.5v995z" />
    <glyph glyph-name="uni042F" unicode="&#x42f;" horiz-adv-x="688" 
d="M438 1405h-104q-68 0 -91.5 -42.5t-23.5 -154.5v-231q0 -86 27 -121t88 -35h104v584zM438 0v664h-78l-182 -664h-168l193 692q-84 28 -118 100t-34 205v244q0 184 69 256t212 72h274v-1569h-168z" />
    <glyph glyph-name="uni0430" unicode="&#x430;" horiz-adv-x="595" 
d="M391 0l-18 94q-52 -110 -164 -110q-53 0 -85.5 26t-51.5 100.5t-19 204.5v29q0 170 36 239.5t122 69.5q57 0 92.5 -24t61.5 -70v309q0 87 -16 121.5t-58 34.5t-58 -34.5t-16 -121.5v-77h-164v61q0 169 52 247.5t188 78.5t185.5 -80t49.5 -262v-836h-137zM365 356
q0 73 -17.5 107.5t-58.5 34.5q-45 0 -58.5 -39t-13.5 -144v-30q0 -81 15 -114.5t55 -33.5q78 0 78 154v65z" />
    <glyph glyph-name="uni0431" unicode="&#x431;" horiz-adv-x="604" 
d="M66 954q0 224 32.5 340.5t118.5 178.5q92 63 301 102l43 -127q-159 -24 -239 -84q-52 -40 -72 -106.5t-25 -186.5q13 42 59.5 75.5t104.5 33.5q72 0 112 -63.5t40 -194.5v-605q0 -183 -53 -258t-181 -75q-120 0 -180.5 65t-60.5 209v696zM377 889q0 137 -70 137
q-78 0 -78 -158v-616q0 -115 74 -115t74 115v637z" />
    <glyph glyph-name="uni0432" unicode="&#x432;" horiz-adv-x="612" 
d="M68 0v1161h266q106 0 161.5 -55.5t55.5 -185.5v-95q0 -92 -29 -149.5t-112 -81.5q91 -22 123 -77.5t32 -160.5v-114q0 -242 -207 -242h-290zM393 895q0 61 -19 88t-61 27h-82v-353h45q117 0 117 125v113zM395 375q0 68 -32.5 96.5t-77.5 28.5h-54v-348h76q88 0 88 114
v109z" />
    <glyph glyph-name="uni0433" unicode="&#x433;" horiz-adv-x="546" 
d="M68 0v1161h464v-151h-301v-1010h-163z" />
    <glyph glyph-name="uni0434" unicode="&#x434;" horiz-adv-x="720" 
d="M553 -197v197h-371v-197h-166v334q50 20 76.5 58.5t30.5 107.5l31 856h473v-1007h75v-349h-149zM463 1010h-146l-26 -682q-5 -64 -20 -104.5t-50 -71.5h242v858z" />
    <glyph glyph-name="uni0435" unicode="&#x435;" horiz-adv-x="589" 
d="M537 307q0 -179 -55.5 -251t-182.5 -72t-182.5 73t-55.5 254v537q0 181 56.5 255.5t183.5 74.5t181.5 -74.5t54.5 -261.5v-328h-312v-242q0 -73 16.5 -104t57.5 -31q39 0 56.5 32t17.5 103v111h164v-76zM373 850q0 99 -14.5 136.5t-59.5 37.5q-47 0 -60.5 -36.5
t-13.5 -137.5v-184h148v184z" />
    <glyph glyph-name="uni0436" unicode="&#x436;" horiz-adv-x="897" 
d="M700 0q0 295 -168 594q168 282 168 567h168q0 -287 -159 -561q157 -300 157 -600h-166zM367 0v1161h163v-1161h-163zM31 0q0 300 157 600q-159 274 -159 561h168q0 -285 168 -567q-168 -299 -168 -594h-166z" />
    <glyph glyph-name="uni0437" unicode="&#x437;" horiz-adv-x="569" 
d="M518 256q0 -144 -60 -208t-179 -64q-116 0 -176 66t-60 218v84h164v-80q0 -71 17.5 -103t56.5 -32q41 0 57 31t16 104v109q0 33 -10.5 58t-25 39t-34 23t-34.5 12t-29 3q-49 0 -92 -2v156q43 -2 90 -2q17 0 37 5.5t43.5 18.5t39 42t15.5 69v98q0 66 -17.5 94.5
t-55.5 28.5q-74 0 -74 -125v-51h-164v45q0 153 59 219t174 66q242 0 242 -265v-53q0 -49 -1.5 -77.5t-9.5 -63.5t-23.5 -56t-43.5 -40.5t-69 -30.5q35 -11 60 -25t41 -34t25.5 -39t14 -50t5.5 -55t1 -65v-68z" />
    <glyph glyph-name="uni0438" unicode="&#x438;" horiz-adv-x="665" 
d="M432 0l4 715l-207 -715h-161v1161h163l-4 -717l209 717h160v-1161h-164z" />
    <glyph glyph-name="uni0439" unicode="&#x439;" horiz-adv-x="665" 
d="M541 1489q-1 -104 -57.5 -160.5t-155.5 -56.5t-157 57t-58 160h98q0 -47 29 -75t88 -28q57 0 85.5 28t30.5 75h97zM432 0l4 715l-207 -715h-161v1161h163l-4 -717l209 717h160v-1161h-164z" />
    <glyph glyph-name="uni043A" unicode="&#x43a;" horiz-adv-x="598" 
d="M401 0q0 295 -168 594q168 282 168 567h168q0 -287 -159 -561q157 -300 157 -600h-166zM68 0v1161h163v-1161h-163z" />
    <glyph glyph-name="uni043B" unicode="&#x43b;" horiz-adv-x="641" 
d="M408 0v1010h-148v-719q0 -157 -39.5 -231t-144.5 -74q-28 0 -60 4v135q2 -2 21 -2q34 0 46.5 35.5t12.5 105.5v897h475v-1161h-163z" />
    <glyph glyph-name="uni043C" unicode="&#x43c;" horiz-adv-x="837" 
d="M604 0l6 711l-153 -711h-78l-154 711l6 -711h-163v1161h184l166 -729l168 729h182v-1161h-164z" />
    <glyph glyph-name="uni043D" unicode="&#x43d;" horiz-adv-x="612" 
d="M379 0v514h-148v-514h-163v1161h163v-495h148v495h164v-1161h-164z" />
    <glyph glyph-name="uni043E" unicode="&#x43e;" horiz-adv-x="600" 
d="M537 268q0 -154 -60 -219t-178 -65q-120 0 -179 65.5t-59 218.5v625q0 153 59 219t179 66q118 0 178 -65.5t60 -219.5v-625zM373 889q0 73 -17.5 104t-58.5 31q-46 0 -59 -40t-13 -148v-564q0 -73 16.5 -104t57.5 -31q39 0 56.5 32t17.5 103v617z" />
    <glyph glyph-name="uni043F" unicode="&#x43f;" horiz-adv-x="612" 
d="M379 0v1010h-148v-1010h-163v1161h475v-1161h-164z" />
    <glyph glyph-name="uni0440" unicode="&#x440;" horiz-adv-x="606" 
d="M70 -408v1569h137l18 -94q59 111 166 111q89 0 121.5 -71t32.5 -243v-567q0 -171 -33 -242t-123 -71q-43 0 -76 16.5t-48.5 34t-31.5 43.5v-486h-163zM381 870q0 84 -15 119t-55 35t-59 -36.5t-19 -129.5v-557q0 -91 19 -128.5t59 -37.5t55 34.5t15 121.5v579z" />
    <glyph glyph-name="uni0441" unicode="&#x441;" horiz-adv-x="585" 
d="M537 305q0 -177 -55.5 -249t-182.5 -72t-182.5 73t-55.5 254v537q0 181 55.5 255.5t182.5 74.5q126 0 182 -72t56 -248v-123h-164v154q0 73 -17.5 104t-58.5 31q-45 0 -58.5 -39.5t-13.5 -142.5v-570q0 -73 16.5 -104t57.5 -31q45 0 59.5 38.5t14.5 137.5v142h164v-150z
" />
    <glyph glyph-name="uni0442" unicode="&#x442;" horiz-adv-x="567" 
d="M201 0v1010h-187v151h539v-151h-188v-1010h-164z" />
    <glyph glyph-name="uni0443" unicode="&#x443;" horiz-adv-x="569" 
d="M147 -410l62 338l-203 1233h172l109 -895l98 895h172l-238 -1571h-172z" />
    <glyph glyph-name="uni0444" unicode="&#x444;" horiz-adv-x="829" 
d="M334 -406v394q-281 30 -281 329v527q0 300 281 330v395h160v-395q280 -31 280 -330v-527q0 -298 -280 -329v-394h-160zM334 1016q-117 -27 -117 -168v-535q0 -37 8 -68.5t35.5 -62t73.5 -37.5v871zM610 848q0 141 -116 168v-871q116 19 116 168v535z" />
    <glyph glyph-name="uni0445" unicode="&#x445;" horiz-adv-x="577" 
d="M406 0l-125 408l-109 -408h-160l183 594l-181 567h162l113 -373l108 373h166l-188 -569l192 -592h-161z" />
    <glyph glyph-name="uni0446" unicode="&#x446;" horiz-adv-x="665" 
d="M498 -197v197h-428v1161h163v-1009h148v1009h164v-1009h102v-349h-149z" />
    <glyph glyph-name="uni0447" unicode="&#x447;" horiz-adv-x="589" 
d="M522 0h-164v553q-11 -21 -21.5 -35.5t-29 -32t-45.5 -27t-61 -9.5q-89 0 -121.5 70.5t-32.5 242.5v399h164v-405q0 -84 15 -119t55 -35t58.5 36.5t18.5 129.5v393h164v-1161z" />
    <glyph glyph-name="uni0448" unicode="&#x448;" horiz-adv-x="903" 
d="M834 0h-766v1161h163v-1009h138v1009h163v-1009h138v1009h164v-1161z" />
    <glyph glyph-name="uni0449" unicode="&#x449;" horiz-adv-x="956" 
d="M788 -197v197h-718v1161h163v-1009h138v1009h164v-1009h137v1009h164v-1009h102v-349h-150z" />
    <glyph glyph-name="uni044A" unicode="&#x44a;" horiz-adv-x="794" 
d="M285 0v1010h-271v151h435v-471h108q203 0 203 -241v-207q0 -242 -207 -242h-268zM596 424q0 115 -74 115h-73v-385h73q74 0 74 114v156z" />
    <glyph glyph-name="uni044B" unicode="&#x44b;" horiz-adv-x="909" 
d="M379 424q0 115 -74 115h-74v-385h74q74 0 74 114v156zM68 0v1161h163v-471h111q201 0 201 -241v-207q0 -242 -207 -242h-268zM676 0v1161h164v-1161h-164z" />
    <glyph glyph-name="uni044C" unicode="&#x44c;" horiz-adv-x="579" 
d="M379 424q0 115 -74 115h-74v-385h74q74 0 74 114v156zM68 0v1161h163v-471h111q201 0 201 -241v-207q0 -242 -207 -242h-268z" />
    <glyph glyph-name="uni044D" unicode="&#x44d;" horiz-adv-x="579" 
d="M516 303q0 -174 -55.5 -246.5t-179.5 -72.5q-121 0 -180.5 65t-59.5 219v84h164v-80q0 -71 17.5 -103t56.5 -32q18 0 30.5 4.5t20.5 18t12.5 26t6.5 40.5t2.5 49t0.5 63v176h-266v152h266v223q0 73 -16 104t-57 31q-39 0 -56.5 -32t-17.5 -103v-51h-164v55
q0 154 60 219.5t178 65.5q120 0 178.5 -66t58.5 -219v-590z" />
    <glyph glyph-name="uni044E" unicode="&#x44e;" horiz-adv-x="919" 
d="M70 0v1161h163v-495h150v227q0 153 59 219t179 66q118 0 177.5 -65.5t59.5 -219.5v-625q0 -154 -59.5 -219t-177.5 -65q-120 0 -179 65.5t-59 218.5v246h-150v-514h-163zM694 889q0 72 -17.5 103.5t-55.5 31.5q-41 0 -57.5 -31t-16.5 -104v-617q0 -73 16.5 -104t57.5 -31
q38 0 55.5 31.5t17.5 103.5v617z" />
    <glyph glyph-name="uni044F" unicode="&#x44f;" horiz-adv-x="595" 
d="M362 0v475h-63l-129 -475h-152l138 494q-105 52 -105 223v203q0 241 207 241h268v-1161h-164zM362 1008h-73q-74 0 -74 -115v-152q0 -114 74 -114h73v381z" />
    <glyph glyph-name="uni0451" unicode="&#x451;" horiz-adv-x="589" 
d="M537 307q0 -179 -55.5 -251t-182.5 -72t-182.5 73t-55.5 254v537q0 181 56.5 255.5t183.5 74.5t181.5 -74.5t54.5 -261.5v-328h-312v-242q0 -73 16.5 -104t57.5 -31q39 0 56.5 32t17.5 103v111h164v-76zM373 850q0 99 -14.5 136.5t-59.5 37.5q-47 0 -60.5 -36.5
t-13.5 -137.5v-184h148v184zM143 1288q-43 0 -73.5 31.5t-30.5 75.5q0 43 30.5 73.5t73.5 30.5q44 0 74.5 -30.5t30.5 -73.5q0 -44 -30.5 -75.5t-74.5 -31.5zM453 1288q-43 0 -74 31.5t-31 75.5q0 43 31 73.5t74 30.5q44 0 74 -30.5t30 -73.5q0 -45 -30 -76t-74 -31z" />
    <glyph glyph-name="uni0452" unicode="&#x452;" 
d="M244 -281q16 -2 35 -2q64 0 82 35t18 123v995q0 84 -15 119t-55 35t-59 -36.5t-19 -129.5v-858h-163v1325h-70v127h70v117h163v-117h215v-127h-215v-252q32 52 52 69q42 36 106 36q89 0 121.5 -71t32.5 -243v-991q0 -158 -46 -227.5t-167 -69.5q-41 0 -86 10v133z" />
    <glyph glyph-name="uni0453" unicode="&#x453;" horiz-adv-x="546" 
d="M215 1309l102 237h187l-160 -237h-129zM68 0v1161h464v-151h-301v-1010h-163z" />
    <glyph glyph-name="uni0454" unicode="&#x454;" horiz-adv-x="579" 
d="M537 268q0 -154 -60 -219t-178 -65q-120 0 -179 65.5t-59 218.5v625q0 153 59 219t179 66q118 0 178 -65.5t60 -219.5v-55h-164v51q0 71 -17.5 103t-56.5 32q-41 0 -57.5 -31t-16.5 -104v-223h267v-152h-267v-242q0 -73 16.5 -104t57.5 -31q39 0 56.5 32t17.5 103v80h164
v-84z" />
    <glyph glyph-name="uni0455" unicode="&#x455;" horiz-adv-x="589" 
d="M211 289q0 -82 17 -117t65 -35q46 0 66 29.5t20 91.5q0 60 -18.5 107.5t-47.5 79.5t-64.5 61t-71 62t-64.5 73.5t-47.5 104.5t-18.5 145q0 154 64 220.5t188 66.5q128 0 186 -67.5t58 -229.5v-107h-164v94q0 88 -17 122t-65 34q-47 0 -65.5 -30t-18.5 -93q0 -68 18 -119
t47.5 -82.5t64.5 -59t70 -57.5t64.5 -68t47.5 -101t18 -146q0 -151 -60.5 -217.5t-191.5 -66.5q-132 0 -188 71t-56 234v94h164v-94z" />
    <glyph glyph-name="uni0456" unicode="&#x456;" horiz-adv-x="301" 
d="M68 0v1161h163v-1161h-163zM150 1294q-47 0 -79 32t-32 79t32 79t79 32t78.5 -32t31.5 -79t-31.5 -79t-78.5 -32z" />
    <glyph glyph-name="uni0457" unicode="&#x457;" horiz-adv-x="301" 
d="M68 0v1161h163v-1161h-163zM-4 1288q-43 0 -74 31.5t-31 75.5q0 43 31 73.5t74 30.5q44 0 74 -30.5t30 -73.5q0 -45 -30 -76t-74 -31zM305 1288q-43 0 -73.5 31.5t-30.5 75.5q0 43 30.5 73.5t73.5 30.5q44 0 74.5 -30.5t30.5 -73.5q0 -44 -30.5 -75.5t-74.5 -31.5z" />
    <glyph glyph-name="uni0458" unicode="&#x458;" horiz-adv-x="301" 
d="M-68 -281q16 -2 35 -2q64 0 82.5 35.5t18.5 122.5v1286h163v-1288q0 -158 -46 -227.5t-167 -69.5q-41 0 -86 10v133zM150 1294q-47 0 -79 32t-32 79t32 79t79 32t78.5 -32t31.5 -79t-31.5 -79t-78.5 -32z" />
    <glyph glyph-name="uni0459" unicode="&#x459;" horiz-adv-x="919" 
d="M410 0v1010h-148v-719q0 -158 -40.5 -231.5t-145.5 -73.5q-24 0 -60 4v135q4 -2 23 -2q14 0 24.5 6.5t17 22.5t10 30.5t5 42.5t2 45.5t0.5 51.5v839h475v-471h72q54 0 92 -8t74.5 -32t55 -74t18.5 -127v-207q0 -242 -207 -242h-268zM721 397q0 74 -17 108t-57 34h-74
v-385h74q74 0 74 114v129z" />
    <glyph glyph-name="uni045A" unicode="&#x45a;" horiz-adv-x="890" 
d="M379 0v537h-148v-537h-163v1161h163v-473h148v473h164v-471h110q201 0 201 -241v-207q0 -242 -207 -242h-268zM690 424q0 115 -74 115h-73v-385h73q74 0 74 114v156z" />
    <glyph glyph-name="uni045B" unicode="&#x45b;" 
d="M379 0v870q0 84 -15 119t-55 35t-59 -36.5t-19 -129.5v-858h-163v1325h-70v127h70v117h163v-117h215v-127h-215v-252q32 52 52 69q42 36 106 36q89 0 121.5 -71t32.5 -243v-864h-164z" />
    <glyph glyph-name="uni045C" unicode="&#x45c;" horiz-adv-x="598" 
d="M227 1309l103 237h186l-160 -237h-129zM401 0q0 295 -168 594q168 282 168 567h168q0 -287 -159 -561q157 -300 157 -600h-166zM68 0v1161h163v-1161h-163z" />
    <glyph glyph-name="uni045E" unicode="&#x45e;" horiz-adv-x="569" 
d="M498 1509q-1 -104 -57.5 -160.5t-155.5 -56.5t-157 57t-58 160h98q0 -47 29 -74.5t88 -27.5q57 0 85.5 27.5t30.5 74.5h97zM147 -410l62 338l-203 1233h172l109 -895l98 895h172l-238 -1571h-172z" />
    <glyph glyph-name="uni045F" unicode="&#x45f;" horiz-adv-x="612" 
d="M231 -197v197h-163v1161h163v-1009h148v1009h164v-1161h-162v-197h-150z" />
    <glyph glyph-name="uni0490" unicode="&#x490;" horiz-adv-x="583" 
d="M80 0v1569h334v217h155v-381h-321v-1405h-168z" />
    <glyph glyph-name="uni0491" unicode="&#x491;" horiz-adv-x="548" 
d="M70 0v1161h315v197h150v-348h-302v-1010h-163z" />
    <glyph glyph-name="uni1E02" unicode="&#x1e02;" horiz-adv-x="708" 
d="M80 0v1569h282q139 0 206 -75.5t67 -250.5v-201q0 -186 -150 -237q88 -25 129 -91.5t41 -160.5v-225q0 -180 -69 -254t-211 -74h-295zM467 1251q0 85 -27 119.5t-88 34.5h-104v-522h104q61 0 88 35t27 120v213zM487 565q0 156 -135 156h-104v-559h125q61 0 87.5 35
t26.5 120v248zM334 1702q-43 0 -74 30t-31 74t31 74.5t74 30.5q44 0 74 -30.5t30 -74.5t-30 -74t-74 -30z" />
    <glyph glyph-name="uni1E03" unicode="&#x1e03;" horiz-adv-x="606" 
d="M70 0v1569h163v-496q13 23 23 37t29 32t45.5 27t60.5 9q89 0 121.5 -71.5t32.5 -242.5v-567q0 -172 -32.5 -242.5t-121.5 -70.5q-107 0 -166 110l-18 -94h-137zM381 870q0 84 -15 119t-55 35t-59 -36.5t-19 -129.5v-557q0 -91 19 -128.5t59 -37.5t55 34.5t15 121.5v579z
M424 1348q-43 0 -74 30t-31 74t31 74t74 30q44 0 74 -30t30 -74t-30 -74t-74 -30z" />
    <glyph glyph-name="uni1E0A" unicode="&#x1e0a;" horiz-adv-x="708" 
d="M80 0v1569h274q143 0 212 -72t69 -256v-913q0 -184 -69 -256t-212 -72h-274zM467 1249q0 85 -27 120.5t-88 35.5h-104v-1243h104q61 0 88 35t27 120v932zM336 1702q-43 0 -74 30t-31 74t31 74.5t74 30.5q44 0 74 -30.5t30 -74.5t-30 -74t-74 -30z" />
    <glyph glyph-name="uni1E0B" unicode="&#x1e0b;" horiz-adv-x="606" 
d="M401 0l-18 94q-59 -110 -166 -110q-90 0 -123 71t-33 242v567q0 171 32.5 242.5t121.5 71.5q45 0 78.5 -18t48.5 -37.5t31 -49.5v496h164v-1569h-136zM373 858q0 93 -19 129.5t-59 36.5t-55 -35t-15 -119v-579q0 -87 15 -121.5t55 -34.5t59 37.5t19 128.5v557zM172 1348
q-43 0 -73.5 30t-30.5 74t30.5 74t73.5 30q44 0 74 -30t30 -74t-30 -74t-74 -30z" />
    <glyph glyph-name="uni1E1E" unicode="&#x1e1e;" horiz-adv-x="612" 
d="M80 0v1569h489v-164h-321v-533h307v-163h-307v-709h-168zM330 1702q-43 0 -74 30t-31 74t31 74.5t74 30.5q44 0 74 -30.5t30 -74.5t-30 -74t-74 -30z" />
    <glyph glyph-name="uni1E1F" unicode="&#x1e1f;" horiz-adv-x="423" 
d="M121 0v1010h-113v151h113v127q0 164 49.5 230.5t153.5 66.5q56 0 96 -12v-135q-16 2 -45 2q-57 0 -73.5 -32.5t-16.5 -117.5v-129h133v-151h-133v-1010h-164zM266 1692q-43 0 -73.5 30t-30.5 74t30.5 74.5t73.5 30.5q44 0 74.5 -30.5t30.5 -74.5t-30.5 -74t-74.5 -30z
" />
    <glyph glyph-name="uni1E22" unicode="&#x1e22;" horiz-adv-x="727" 
d="M477 0v715h-229v-715h-168v1569h168v-692h229v692h168v-1569h-168zM360 1702q-43 0 -73.5 30t-30.5 74t30.5 74.5t73.5 30.5q44 0 74.5 -30.5t30.5 -74.5t-30.5 -74t-74.5 -30z" />
    <glyph glyph-name="uni1E23" unicode="&#x1e23;" 
d="M379 0v870q0 84 -15 119t-55 35t-59 -36.5t-19 -129.5v-858h-163v1569h163v-496q32 52 52 69q42 36 106 36q89 0 121.5 -71t32.5 -243v-864h-164zM428 1348q-43 0 -73.5 30t-30.5 74t30.5 74t73.5 30q44 0 74 -30t30 -74t-30 -74t-74 -30z" />
    <glyph glyph-name="uni1E40" unicode="&#x1e40;" horiz-adv-x="1042" 
d="M793 0l6 1227l-217 -1227h-136l-204 1229l6 -1229h-168v1569h266l174 -1110l174 1110h267v-1569h-168zM518 1702q-43 0 -73.5 30t-30.5 74t30.5 74.5t73.5 30.5q44 0 74.5 -30.5t30.5 -74.5t-30.5 -74t-74.5 -30z" />
    <glyph glyph-name="uni1E41" unicode="&#x1e41;" horiz-adv-x="921" 
d="M692 0v870q0 85 -14.5 119.5t-54.5 34.5t-59 -35.5t-19 -124.5v-864h-164v870q0 84 -15 119t-55 35t-59 -36.5t-19 -129.5v-858h-163v1161h137l18 -94q59 111 166 111q59 0 91 -31t50 -100q27 62 65.5 96.5t104.5 34.5q89 0 121.5 -71.5t32.5 -242.5v-864h-164zM459 1294
q-43 0 -74 30.5t-31 74.5t31 74t74 30q44 0 74 -30t30 -74t-30 -74.5t-74 -30.5z" />
    <glyph glyph-name="uni1E56" unicode="&#x1e56;" horiz-adv-x="677" 
d="M80 0v1569h270q143 0 214 -72.5t71 -255.5v-256q0 -183 -68.5 -255.5t-210.5 -72.5h-108v-657h-168zM467 1249q0 85 -27 120.5t-88 35.5h-104v-584h104q61 0 88 35.5t27 120.5v272zM330 1702q-43 0 -74 30t-31 74t31 74.5t74 30.5q44 0 74 -30.5t30 -74.5t-30 -74
t-74 -30z" />
    <glyph glyph-name="uni1E57" unicode="&#x1e57;" horiz-adv-x="606" 
d="M70 -408v1569h137l18 -94q59 111 166 111q89 0 121.5 -71t32.5 -243v-567q0 -171 -33 -242t-123 -71q-43 0 -76 16.5t-48.5 34t-31.5 43.5v-486h-163zM381 870q0 84 -15 119t-55 35t-59 -36.5t-19 -129.5v-557q0 -91 19 -128.5t59 -37.5t55 34.5t15 121.5v579zM299 1294
q-43 0 -73.5 30.5t-30.5 74.5t30.5 74t73.5 30q44 0 74 -30t30 -74t-30 -74.5t-74 -30.5z" />
    <glyph glyph-name="uni1E60" unicode="&#x1e60;" horiz-adv-x="681" 
d="M623 311q0 -338 -281 -338q-285 0 -285 338v213h168v-237q0 -81 32.5 -118.5t84.5 -37.5q113 0 113 191v135q0 40 -22 80.5t-57 76.5t-77.5 74.5t-85 81t-77.5 88t-57 103.5t-22 120v199q0 90 25 154.5t68.5 98t91 48t104.5 14.5q56 0 102.5 -14.5t87.5 -48t64 -98.5
t23 -156v-256h-168v260q0 81 -32.5 118.5t-84.5 37.5q-113 0 -113 -193v-135q0 -60 29.5 -115t73.5 -95.5t96 -87t96 -89.5t73.5 -104.5t29.5 -129.5v-178zM342 1702q-43 0 -73.5 30t-30.5 74t30.5 74.5t73.5 30.5q44 0 74 -30.5t30 -74.5t-30 -74t-74 -30z" />
    <glyph glyph-name="uni1E61" unicode="&#x1e61;" horiz-adv-x="581" 
d="M207 289q0 -82 17 -117t65 -35q46 0 66 29.5t20 91.5q0 60 -18.5 107.5t-47.5 79.5t-64.5 61t-71 62t-64.5 73.5t-47.5 104.5t-18.5 145q0 154 64 220.5t188 66.5q128 0 186 -67.5t58 -229.5v-107h-164v94q0 88 -17 122t-65 34q-47 0 -65.5 -30t-18.5 -93q0 -68 18 -119
t47.5 -82.5t64.5 -59t70 -57.5t64.5 -68t47.5 -101t18 -146q0 -151 -60.5 -217.5t-191.5 -66.5q-132 0 -188 71t-56 234v94h164v-94zM297 1294q-43 0 -73.5 30.5t-30.5 74.5t30.5 74t73.5 30q44 0 74 -30t30 -74t-30 -74.5t-74 -30.5z" />
    <glyph glyph-name="uni1E6A" unicode="&#x1e6a;" horiz-adv-x="589" 
d="M211 0v1405h-195v164h557v-164h-194v-1405h-168zM293 1702q-43 0 -74 30t-31 74t31 74.5t74 30.5q44 0 74 -30.5t30 -74.5t-30 -74t-74 -30z" />
    <glyph glyph-name="uni1E6B" unicode="&#x1e6b;" horiz-adv-x="417" 
d="M403 -6q-45 -10 -88 -10q-121 0 -166 69t-45 238v719h-92v151h92v287h164v-287h133v-151h-133v-731q0 -84 17.5 -117t74.5 -33q27 0 43 2v-137zM188 1561q-43 0 -73.5 30t-30.5 74t30.5 74t73.5 30q44 0 74.5 -30t30.5 -74t-30.5 -74t-74.5 -30z" />
    <glyph glyph-name="Wgrave" unicode="&#x1e80;" horiz-adv-x="1093" 
d="M901 0h-219l-135 1223l-133 -1223h-221l-173 1569h168l117 -1256l135 1256h213l135 -1256l117 1256h168zM504 1716l-162 238h186l105 -238h-129z" />
    <glyph glyph-name="wgrave" unicode="&#x1e81;" horiz-adv-x="927" 
d="M553 0l-88 848l-88 -848h-203l-158 1161h172l93 -901l94 901h180l94 -901l92 901h172l-157 -1161h-203zM426 1309l-162 237h187l104 -237h-129z" />
    <glyph glyph-name="Wacute" unicode="&#x1e82;" horiz-adv-x="1093" 
d="M901 0h-219l-135 1223l-133 -1223h-221l-173 1569h168l117 -1256l135 1256h213l135 -1256l117 1256h168zM473 1716l102 238h187l-160 -238h-129z" />
    <glyph glyph-name="wacute" unicode="&#x1e83;" horiz-adv-x="927" 
d="M553 0l-88 848l-88 -848h-203l-158 1161h172l93 -901l94 901h180l94 -901l92 901h172l-157 -1161h-203zM387 1309l102 237h187l-160 -237h-129z" />
    <glyph glyph-name="Wdieresis" unicode="&#x1e84;" horiz-adv-x="1093" 
d="M901 0h-219l-135 1223l-133 -1223h-221l-173 1569h168l117 -1256l135 1256h213l135 -1256l117 1256h168zM393 1696q-43 0 -73.5 31t-30.5 75q0 43 30.5 74t73.5 31q44 0 74.5 -31t30.5 -74q0 -44 -30.5 -75t-74.5 -31zM702 1696q-43 0 -73.5 31t-30.5 75q0 43 30.5 74
t73.5 31q44 0 74.5 -31t30.5 -74q0 -44 -30.5 -75t-74.5 -31z" />
    <glyph glyph-name="wdieresis" unicode="&#x1e85;" horiz-adv-x="927" 
d="M553 0l-88 848l-88 -848h-203l-158 1161h172l93 -901l94 901h180l94 -901l92 901h172l-157 -1161h-203zM311 1288q-43 0 -73.5 31.5t-30.5 75.5q0 43 30.5 73.5t73.5 30.5q44 0 74.5 -30.5t30.5 -73.5q0 -44 -30.5 -75.5t-74.5 -31.5zM621 1288q-43 0 -74 31.5t-31 75.5
q0 43 31 73.5t74 30.5q44 0 74 -30.5t30 -73.5q0 -45 -30 -76t-74 -31z" />
    <glyph glyph-name="Ygrave" unicode="&#x1ef2;" horiz-adv-x="667" 
d="M250 0v565l-242 1004h170l154 -738l157 738h170l-243 -1004v-565h-166zM291 1716l-162 238h186l105 -238h-129z" />
    <glyph glyph-name="ygrave" unicode="&#x1ef3;" horiz-adv-x="573" 
d="M154 -410l61 338l-203 1233h172l109 -895l98 895h172l-237 -1571h-172zM256 1309l-162 237h187l104 -237h-129z" />
    <glyph glyph-name="endash" unicode="&#x2013;" horiz-adv-x="585" 
d="M66 520v156h454v-156h-454z" />
    <glyph glyph-name="emdash" unicode="&#x2014;" horiz-adv-x="856" 
d="M66 520v156h725v-156h-725z" />
    <glyph glyph-name="uni2015" unicode="&#x2015;" horiz-adv-x="2179" 
d="M66 520v156h2048v-156h-2048z" />
    <glyph glyph-name="quoteleft" unicode="&#x2018;" horiz-adv-x="364" 
d="M37 1116l199 453h106l-115 -453h-190z" />
    <glyph glyph-name="quoteright" unicode="&#x2019;" horiz-adv-x="356" 
d="M41 1116l115 453h190l-199 -453h-106z" />
    <glyph glyph-name="quotesinglbase" unicode="&#x201a;" horiz-adv-x="428" 
d="M39 -276l113 450h190l-197 -450h-106z" />
    <glyph glyph-name="quotedblleft" unicode="&#x201c;" horiz-adv-x="651" 
d="M324 1116l198 453h107l-115 -453h-190zM37 1116l199 453h106l-115 -453h-190z" />
    <glyph glyph-name="quotedblright" unicode="&#x201d;" horiz-adv-x="643" 
d="M41 1116l115 453h190l-199 -453h-106zM328 1116l114 453h191l-199 -453h-106z" />
    <glyph glyph-name="quotedblbase" unicode="&#x201e;" horiz-adv-x="714" 
d="M39 -276l113 450h190l-197 -450h-106zM326 -276l112 450h191l-197 -450h-106z" />
    <glyph glyph-name="dagger" unicode="&#x2020;" horiz-adv-x="638" 
d="M258 -123l-20 1141l-205 -10v153l215 -10l-21 418h185l-23 -418l217 10v-153l-205 10l-20 -1141h-123z" />
    <glyph glyph-name="daggerdbl" unicode="&#x2021;" horiz-adv-x="657" 
d="M266 -123l-14 688l-211 -8v154l211 -11q-6 71 -6 146q0 93 8 172l-213 -10v153l215 -10l-20 418h184l-23 -418l217 10v-153l-213 10q7 -100 7 -168q0 -64 -7 -150l213 11v-154l-213 8l-12 -688h-123z" />
    <glyph glyph-name="bullet" unicode="&#x2022;" horiz-adv-x="612" 
d="M311 565q-94 0 -160.5 63t-66.5 158q0 91 65 156.5t158 65.5q34 0 69.5 -11t70.5 -34.5t57 -69t22 -107.5q0 -99 -65 -160t-150 -61z" />
    <glyph glyph-name="onedotenleader" unicode="&#x2024;" horiz-adv-x="327" 
d="M164 -16q-45 0 -77 31t-32 75t32.5 76.5t76.5 32.5t75 -32t31 -77q0 -44 -31 -75t-75 -31z" />
    <glyph glyph-name="twodotenleader" unicode="&#x2025;" horiz-adv-x="645" 
d="M164 -16q-45 0 -77 31t-32 75t32.5 76.5t76.5 32.5t75 -32t31 -77q0 -44 -31 -75t-75 -31zM504 -16q-45 0 -77 31t-32 75t32.5 76.5t76.5 32.5t75 -32t31 -77q0 -44 -31 -75t-75 -31z" />
    <glyph glyph-name="ellipsis" unicode="&#x2026;" horiz-adv-x="962" 
d="M164 -16q-45 0 -77 31t-32 75t32.5 76.5t76.5 32.5t75 -32t31 -77q0 -44 -31 -75t-75 -31zM504 -16q-45 0 -77 31t-32 75t32.5 76.5t76.5 32.5t75 -32t31 -77q0 -44 -31 -75t-75 -31zM844 -16q-45 0 -77 31t-32 75t32.5 76.5t76.5 32.5t75 -32t31 -77q0 -44 -31 -75
t-75 -31z" />
    <glyph glyph-name="perthousand" unicode="&#x2030;" horiz-adv-x="1902" 
d="M399 0l422 1569h146l-422 -1569h-146zM489 874q0 -175 -48 -246t-173 -71q-126 0 -174.5 72.5t-48.5 244.5v388q0 172 48.5 244.5t174.5 72.5q125 0 173 -71t48 -246v-388zM340 1233q0 119 -13.5 159t-60.5 40q-42 0 -57.5 -34t-15.5 -122v-373q0 -119 13 -158.5
t60 -39.5q42 0 58 34t16 121v373zM1315 299q0 -175 -48 -246t-173 -71q-126 0 -175 73t-49 244v389q0 172 49 245t175 73q125 0 173 -71.5t48 -246.5v-389zM1165 659q0 117 -13 157t-60 40q-42 0 -58 -34.5t-16 -121.5v-372q0 -117 13.5 -157t60.5 -40q42 0 57.5 34
t15.5 122v372zM1855 299q0 -174 -47 -245.5t-172 -71.5q-126 0 -175.5 73t-49.5 244v389q0 171 49.5 244.5t175.5 73.5q125 0 172 -72t47 -246v-389zM1708 659q0 117 -13.5 157t-60.5 40q-42 0 -57.5 -34t-15.5 -122v-372q0 -119 12.5 -158t60.5 -39q42 0 58 34t16 122v372z
" />
    <glyph glyph-name="guilsinglleft" unicode="&#x2039;" horiz-adv-x="413" 
d="M182 195l-153 352l153 356h168l-155 -356l155 -352h-168z" />
    <glyph glyph-name="guilsinglright" unicode="&#x203a;" horiz-adv-x="413" 
d="M61 195l156 352l-156 356h168l154 -356l-154 -352h-168z" />
    <glyph glyph-name="fraction" unicode="&#x2044;" horiz-adv-x="540" 
d="M-8 0l422 1569h135l-422 -1569h-135z" />
    <glyph glyph-name="foursuperior" unicode="&#x2074;" horiz-adv-x="473" 
d="M242 817v172h-209v111l141 471h195v-471h67v-111h-67v-172h-127zM242 1458l-88 -358h88v358z" />
    <glyph glyph-name="Euro" unicode="&#x20ac;" horiz-adv-x="755" 
d="M700 301q0 -328 -282 -328q-62 0 -111.5 17t-89 53.5t-61 102t-21.5 155.5v260h-88v156h88v131h-90v156h90v264q0 327 287 327q278 0 278 -321v-109h-168v117q0 80 -32.5 118t-83.5 38q-113 0 -113 -193v-241h309v-156h-309v-131h311v-156h-311v-274q0 -81 31.5 -118.5
t83.5 -37.5q49 0 81.5 38t32.5 118v94h168v-80z" />
    <glyph glyph-name="uni2116" unicode="&#x2116;" horiz-adv-x="1370" 
d="M545 0l-273 1071l2 -1071h-168v1569h193l283 -1090l-2 1090h168v-1569h-203zM1317 795q0 -155 -54.5 -220t-170.5 -65q-119 0 -174.5 65.5t-55.5 219.5v270q0 156 55.5 220.5t174.5 64.5q116 0 170.5 -65t54.5 -220v-270zM889 215v145h409v-145h-409zM1163 1061
q0 74 -16 104.5t-57 30.5q-39 0 -56.5 -31t-17.5 -104v-262q0 -71 17.5 -103t56.5 -32q41 0 57 31t16 104v262z" />
    <glyph glyph-name="Omega" unicode="&#x2126;" horiz-adv-x="739" 
d="M399 0v184q84 24 84 152v946q0 78 -32 117t-82 39q-51 0 -83 -39t-32 -117v-946q0 -128 84 -152v-184h-268v164l166 -12q-79 29 -114.5 101t-35.5 202v813q0 327 287 327q59 0 106 -15t87.5 -50t62.5 -101t22 -161v-813q0 -130 -35 -202t-114 -101l166 12v-164h-269z" />
    <glyph glyph-name="angstrom" unicode="&#x212b;" horiz-adv-x="712" 
d="M514 0l-43 369h-227l-43 -369h-168l217 1552q-49 46 -49 115q0 66 44.5 110t110.5 44t110 -44t44 -110q0 -64 -51 -115l223 -1552h-168zM356 1348l-94 -822h189zM420 1667q0 26 -19 45t-45 19q-28 0 -45.5 -18.5t-17.5 -45.5q0 -29 17 -46t46 -17q27 0 45.5 17.5
t18.5 45.5z" />
    <glyph glyph-name="onethird" unicode="&#x2153;" horiz-adv-x="1050" 
d="M213 0l422 1569h135l-422 -1569h-135zM158 817v610l-127 -59v127l149 76h115v-754h-137zM1001 168q0 -92 -45.5 -137t-142.5 -45q-98 0 -143 44t-45 132v55h135v-49q0 -72 53 -72q51 0 51 88v80q0 64 -78 64q-14 0 -30 -2v110q14 -2 28 -2q36 0 58 12.5t22 49.5v86
q0 71 -51 71q-53 0 -53 -71v-54h-135v58q0 178 186 178q190 0 190 -178v-70q0 -52 -16.5 -82.5t-62.5 -46.5q79 -28 79 -145v-74z" />
    <glyph glyph-name="twothirds" unicode="&#x2154;" horiz-adv-x="1126" 
d="M301 0l422 1569h135l-422 -1569h-135zM41 817v109q0 46 24.5 91t60 81.5t71 71.5t60 76t24.5 81v72q0 71 -54 71q-53 0 -53 -71v-88h-133v100q0 81 47.5 126.5t138.5 45.5q94 0 142.5 -46t48.5 -126v-94q0 -47 -23 -93t-55 -82t-64.5 -70t-55.5 -70t-23 -68h204v-117
h-360zM1090 168q0 -92 -46 -137t-143 -45q-98 0 -143 44t-45 132v55h135v-49q0 -72 53 -72q51 0 51 88v80q0 64 -78 64q-14 0 -30 -2v110q14 -2 28 -2q36 0 58 12.5t22 49.5v86q0 71 -51 71q-53 0 -53 -71v-54h-135v58q0 178 186 178q191 0 191 -178v-70q0 -52 -16.5 -82.5
t-63.5 -46.5q80 -28 80 -145v-74z" />
    <glyph glyph-name="Delta" unicode="&#x2206;" horiz-adv-x="718" 
d="M35 0l211 1569h225l213 -1569h-649zM358 1348l-135 -1186h271z" />
    <glyph glyph-name="product" unicode="&#x220f;" horiz-adv-x="780" 
d="M504 -205v1610h-230v-1610h-168v1774h566v-1774h-168z" />
    <glyph glyph-name="summation" unicode="&#x2211;" horiz-adv-x="618" 
d="M45 -225v162l252 755l-256 713v164h524v-164h-348l256 -713l-252 -755h359v-162h-535z" />
    <glyph glyph-name="minus" unicode="&#x2212;" horiz-adv-x="864" 
d="M61 668v151h742v-151h-742z" />
    <glyph glyph-name="notequal" unicode="&#x2260;" horiz-adv-x="864" 
d="M446 502l-65 -273h-154l66 273h-232v151h271l45 176h-316v152h353l69 272h154l-70 -272h236v-152h-273l-45 -176h318v-151h-357z" />
    <glyph glyph-name="commaaccent" unicode="&#xf6c3;" horiz-adv-x="389" 
d="M72 -371l92 269h176l-143 -269h-125z" />
    <glyph glyph-name="apple" unicode="&#xf8ff;" horiz-adv-x="2060" 
d="M823 0l-205 1030l412 406l414 -406l-207 -1030h-414zM371 0l-269 350l177 334l339 -168l105 -516h-352zM1339 0l105 516l338 168l176 -334l-266 -350h-353z" />
    <glyph glyph-name="A.uni" horiz-adv-x="704" 
d="M479 0l-12 102q-66 -129 -199 -129q-94 0 -151.5 65t-57.5 208v317q0 156 52.5 221.5t146.5 65.5q66 0 117 -29.5t82 -79.5v541q0 80 -32 118t-83 38q-49 0 -82 -38.5t-33 -117.5v-258h-168v250q0 321 279 321q287 0 287 -327v-1268h-146zM457 514q0 89 -37 134.5
t-92 45.5q-101 0 -101 -166v-229q0 -170 109 -170q121 0 121 174v211z" />
    <glyph glyph-name="AE.uni" horiz-adv-x="1107" 
d="M1042 301q0 -177 -76 -252.5t-214 -75.5q-203 0 -267 156q-77 -156 -215 -156q-211 0 -211 279v311q0 156 52.5 221.5t146.5 65.5q66 0 117 -29.5t82 -79.5v541q0 80 -32 118t-83 38q-60 0 -87.5 -48.5t-27.5 -158.5v-207h-168v250q0 321 279 321q138 0 203 -92
q70 92 211 92q290 0 290 -327v-512h-417v-469q0 -156 125 -156q66 0 95 46.5t29 154.5v192h168v-223zM874 1282q0 156 -124 156q-57 0 -91 -36.5t-34 -111.5v-375h249v367zM457 514q0 89 -37 134.5t-92 45.5q-101 0 -101 -166v-192q0 -118 27 -162.5t82 -44.5q54 0 87.5 41
t33.5 129v215z" />
    <glyph glyph-name="AEacute.uni" horiz-adv-x="1107" 
d="M479 1716l103 238h186l-160 -238h-129zM1042 301q0 -177 -76 -252.5t-214 -75.5q-203 0 -267 156q-77 -156 -215 -156q-211 0 -211 279v311q0 156 52.5 221.5t146.5 65.5q66 0 117 -29.5t82 -79.5v541q0 80 -32 118t-83 38q-60 0 -87.5 -48.5t-27.5 -158.5v-207h-168v250
q0 321 279 321q138 0 203 -92q70 92 211 92q290 0 290 -327v-512h-417v-469q0 -156 125 -156q66 0 95 46.5t29 154.5v192h168v-223zM874 1282q0 156 -124 156q-57 0 -91 -36.5t-34 -111.5v-375h249v367zM457 514q0 89 -37 134.5t-92 45.5q-101 0 -101 -166v-192
q0 -118 27 -162.5t82 -44.5q54 0 87.5 41t33.5 129v215z" />
    <glyph glyph-name="Aacute.uni" horiz-adv-x="704" 
d="M479 0l-12 102q-66 -129 -199 -129q-94 0 -151.5 65t-57.5 208v317q0 156 52.5 221.5t146.5 65.5q66 0 117 -29.5t82 -79.5v541q0 80 -32 118t-83 38q-49 0 -82 -38.5t-33 -117.5v-258h-168v250q0 321 279 321q287 0 287 -327v-1268h-146zM457 514q0 89 -37 134.5
t-92 45.5q-101 0 -101 -166v-229q0 -170 109 -170q121 0 121 174v211zM270 1716l103 238h186l-160 -238h-129z" />
    <glyph glyph-name="Abreve.uni" horiz-adv-x="704" 
d="M479 0l-12 102q-66 -129 -199 -129q-94 0 -151.5 65t-57.5 208v317q0 156 52.5 221.5t146.5 65.5q66 0 117 -29.5t82 -79.5v541q0 80 -32 118t-83 38q-49 0 -82 -38.5t-33 -117.5v-258h-168v250q0 321 279 321q287 0 287 -327v-1268h-146zM457 514q0 89 -37 134.5
t-92 45.5q-101 0 -101 -166v-229q0 -170 109 -170q121 0 121 174v211zM563 1917q-1 -104 -57.5 -160.5t-155.5 -56.5t-157 57t-58 160h98q0 -47 29 -74.5t88 -27.5q57 0 86 27.5t31 74.5h96z" />
    <glyph glyph-name="Acircumflex.uni" horiz-adv-x="704" 
d="M479 0l-12 102q-66 -129 -199 -129q-94 0 -151.5 65t-57.5 208v317q0 156 52.5 221.5t146.5 65.5q66 0 117 -29.5t82 -79.5v541q0 80 -32 118t-83 38q-49 0 -82 -38.5t-33 -117.5v-258h-168v250q0 321 279 321q287 0 287 -327v-1268h-146zM457 514q0 89 -37 134.5
t-92 45.5q-101 0 -101 -166v-229q0 -170 109 -170q121 0 121 174v211zM434 1716l-86 144l-78 -144h-139l135 248h164l139 -248h-135z" />
    <glyph glyph-name="Adieresis.uni" horiz-adv-x="704" 
d="M479 0l-12 102q-66 -129 -199 -129q-94 0 -151.5 65t-57.5 208v317q0 156 52.5 221.5t146.5 65.5q66 0 117 -29.5t82 -79.5v541q0 80 -32 118t-83 38q-49 0 -82 -38.5t-33 -117.5v-258h-168v250q0 321 279 321q287 0 287 -327v-1268h-146zM457 514q0 89 -37 134.5
t-92 45.5q-101 0 -101 -166v-229q0 -170 109 -170q121 0 121 174v211zM195 1696q-43 0 -74 31t-31 75q0 43 31 74t74 31q44 0 74 -31t30 -74q0 -44 -30 -75t-74 -31zM504 1696q-43 0 -74 31t-31 75q0 43 31 74t74 31q44 0 74 -31t30 -74q0 -44 -30 -75t-74 -31z" />
    <glyph glyph-name="Agrave.uni" horiz-adv-x="704" 
d="M479 0l-12 102q-66 -129 -199 -129q-94 0 -151.5 65t-57.5 208v317q0 156 52.5 221.5t146.5 65.5q66 0 117 -29.5t82 -79.5v541q0 80 -32 118t-83 38q-49 0 -82 -38.5t-33 -117.5v-258h-168v250q0 321 279 321q287 0 287 -327v-1268h-146zM457 514q0 89 -37 134.5
t-92 45.5q-101 0 -101 -166v-229q0 -170 109 -170q121 0 121 174v211zM303 1716l-162 238h187l104 -238h-129z" />
    <glyph glyph-name="Amacron.uni" horiz-adv-x="704" 
d="M479 0l-12 102q-66 -129 -199 -129q-94 0 -151.5 65t-57.5 208v317q0 156 52.5 221.5t146.5 65.5q66 0 117 -29.5t82 -79.5v541q0 80 -32 118t-83 38q-49 0 -82 -38.5t-33 -117.5v-258h-168v250q0 321 279 321q287 0 287 -327v-1268h-146zM457 514q0 89 -37 134.5
t-92 45.5q-101 0 -101 -166v-229q0 -170 109 -170q121 0 121 174v211zM113 1716v135h475v-135h-475z" />
    <glyph glyph-name="Aogonek.uni" horiz-adv-x="704" 
d="M588 -389q-101 7 -161 66t-60 137q0 110 112 176l-12 112q-66 -129 -199 -129q-94 0 -151.5 65t-57.5 208v317q0 156 52.5 221.5t146.5 65.5q66 0 117 -29.5t82 -79.5v541q0 80 -32 118t-83 38q-49 0 -82 -38.5t-33 -117.5v-258h-168v250q0 321 279 321q287 0 287 -327
v-1268q-117 -81 -117 -172q0 -95 137 -133zM457 514q0 89 -37 134.5t-92 45.5q-101 0 -101 -166v-229q0 -170 109 -170q121 0 121 174v211z" />
    <glyph glyph-name="Aring.uni" horiz-adv-x="704" 
d="M418 1827q0 29 -20 48t-50 19q-29 0 -48 -19t-19 -48q0 -30 19 -50t48 -20t49.5 20.5t20.5 49.5zM348 1671q-66 0 -109.5 45t-43.5 111t43.5 109.5t109.5 43.5t111 -43.5t45 -109.5t-45 -111t-111 -45zM479 0l-12 102q-66 -129 -199 -129q-94 0 -151.5 65t-57.5 208v317
q0 156 52.5 221.5t146.5 65.5q66 0 117 -29.5t82 -79.5v541q0 80 -32 118t-83 38q-49 0 -82 -38.5t-33 -117.5v-258h-168v250q0 321 279 321q287 0 287 -327v-1268h-146zM457 514q0 89 -37 134.5t-92 45.5q-101 0 -101 -166v-229q0 -170 109 -170q121 0 121 174v211z" />
    <glyph glyph-name="Atilde.uni" horiz-adv-x="704" 
d="M479 0l-12 102q-66 -129 -199 -129q-94 0 -151.5 65t-57.5 208v317q0 156 52.5 221.5t146.5 65.5q66 0 117 -29.5t82 -79.5v541q0 80 -32 118t-83 38q-49 0 -82 -38.5t-33 -117.5v-258h-168v250q0 321 279 321q287 0 287 -327v-1268h-146zM457 514q0 89 -37 134.5
t-92 45.5q-101 0 -101 -166v-229q0 -170 109 -170q121 0 121 174v211zM575 1878q-6 -74 -42.5 -118t-96.5 -44q-31 0 -76.5 18.5t-68.5 18.5q-20 0 -30.5 -7.5t-14.5 -29.5h-123q0 36 13 71.5t45 63t77 27.5q32 0 81 -17.5t67 -17.5q40 0 43 35h126z" />
    <glyph glyph-name="Delta.sc" horiz-adv-x="602" 
d="M14 0l164 1223h246l166 -1223h-576zM301 1038l-102 -882h207z" />
    <glyph glyph-name="E.uni" horiz-adv-x="720" 
d="M657 301q0 -176 -76.5 -252t-215.5 -76t-216 76t-77 252v967q0 327 293 327q292 0 292 -327v-512h-417v-469q0 -156 125 -156q124 0 124 156v237h168v-223zM489 1282q0 156 -127 156q-65 0 -93.5 -47t-28.5 -152v-324h249v367z" />
    <glyph glyph-name="Eacute.uni" horiz-adv-x="720" 
d="M657 301q0 -176 -76.5 -252t-215.5 -76t-216 76t-77 252v967q0 327 293 327q292 0 292 -327v-512h-417v-469q0 -156 125 -156q124 0 124 156v237h168v-223zM489 1282q0 156 -127 156q-65 0 -93.5 -47t-28.5 -152v-324h249v367zM279 1716l102 238h186l-159 -238h-129z" />
    <glyph glyph-name="Ebreve.uni" horiz-adv-x="720" 
d="M657 301q0 -176 -76.5 -252t-215.5 -76t-216 76t-77 252v967q0 327 293 327q292 0 292 -327v-512h-417v-469q0 -156 125 -156q124 0 124 156v237h168v-223zM489 1282q0 156 -127 156q-65 0 -93.5 -47t-28.5 -152v-324h249v367zM580 1917q-1 -104 -57.5 -160.5
t-155.5 -56.5t-157 57t-58 160h98q0 -47 29 -74.5t88 -27.5q57 0 85.5 27.5t30.5 74.5h97z" />
    <glyph glyph-name="Ecaron.uni" horiz-adv-x="720" 
d="M657 301q0 -176 -76.5 -252t-215.5 -76t-216 76t-77 252v967q0 327 293 327q292 0 292 -327v-512h-417v-469q0 -156 125 -156q124 0 124 156v237h168v-223zM489 1282q0 156 -127 156q-65 0 -93.5 -47t-28.5 -152v-324h249v367zM287 1716l-140 248h138l82 -141l82 141h137
l-135 -248h-164z" />
    <glyph glyph-name="Ecircumflex.uni" horiz-adv-x="720" 
d="M657 301q0 -176 -76.5 -252t-215.5 -76t-216 76t-77 252v967q0 327 293 327q292 0 292 -327v-512h-417v-469q0 -156 125 -156q124 0 124 156v237h168v-223zM489 1282q0 156 -127 156q-65 0 -93.5 -47t-28.5 -152v-324h249v367zM451 1716l-86 144l-78 -144h-140l136 248
h163l140 -248h-135z" />
    <glyph glyph-name="Edieresis.uni" horiz-adv-x="720" 
d="M657 301q0 -176 -76.5 -252t-215.5 -76t-216 76t-77 252v967q0 327 293 327q292 0 292 -327v-512h-417v-469q0 -156 125 -156q124 0 124 156v237h168v-223zM489 1282q0 156 -127 156q-65 0 -93.5 -47t-28.5 -152v-324h249v367zM211 1696q-43 0 -74 31t-31 75q0 43 31 74
t74 31q44 0 74 -31t30 -74q0 -44 -30 -75t-74 -31zM520 1696q-43 0 -73.5 31t-30.5 75q0 43 30.5 74t73.5 31q44 0 74.5 -31t30.5 -74q0 -44 -30.5 -75t-74.5 -31z" />
    <glyph glyph-name="Edotaccent.uni" horiz-adv-x="720" 
d="M657 301q0 -176 -76.5 -252t-215.5 -76t-216 76t-77 252v967q0 327 293 327q292 0 292 -327v-512h-417v-469q0 -156 125 -156q124 0 124 156v237h168v-223zM489 1282q0 156 -127 156q-65 0 -93.5 -47t-28.5 -152v-324h249v367zM367 1702q-43 0 -74 30t-31 74t31 74.5
t74 30.5q44 0 74 -30.5t30 -74.5t-30 -74t-74 -30z" />
    <glyph glyph-name="Egrave.uni" horiz-adv-x="720" 
d="M657 301q0 -176 -76.5 -252t-215.5 -76t-216 76t-77 252v967q0 327 293 327q292 0 292 -327v-512h-417v-469q0 -156 125 -156q124 0 124 156v237h168v-223zM489 1282q0 156 -127 156q-65 0 -93.5 -47t-28.5 -152v-324h249v367zM317 1716l-161 238h186l104 -238h-129z" />
    <glyph glyph-name="Emacron.uni" horiz-adv-x="720" 
d="M657 301q0 -176 -76.5 -252t-215.5 -76t-216 76t-77 252v967q0 327 293 327q292 0 292 -327v-512h-417v-469q0 -156 125 -156q124 0 124 156v237h168v-223zM489 1282q0 156 -127 156q-65 0 -93.5 -47t-28.5 -152v-324h249v367zM129 1716v135h475v-135h-475z" />
    <glyph glyph-name="Eng.uni" horiz-adv-x="724" 
d="M356 -393v157h9q48 0 81 38t33 118v1348q0 172 -108 172q-121 0 -121 -176v-1264h-170v1569h147l11 -103q63 129 200 129q41 0 76 -13t66 -42t49 -84.5t18 -132.5v-1401q0 -92 -24.5 -156.5t-67.5 -97.5t-89 -47t-101 -14h-9z" />
    <glyph glyph-name="Eogonek.uni" horiz-adv-x="720" 
d="M498 -377q-103 10 -162.5 67.5t-59.5 135.5q0 86 72 147q-132 5 -204 81t-72 247v967q0 327 293 327q292 0 292 -327v-512h-417v-469q0 -156 125 -156q124 0 124 156v237h168v-223q0 -67 -11.5 -119t-33.5 -85.5t-40 -52t-44 -36.5q-51 -36 -80.5 -74t-29.5 -90
q0 -104 137 -135zM489 1282q0 156 -124 156q-58 0 -91.5 -37.5t-33.5 -118.5v-367h249v367z" />
    <glyph glyph-name="Euro.sc" horiz-adv-x="677" 
d="M629 227q0 -66 -20.5 -115.5t-56.5 -77.5t-79.5 -41t-95.5 -13q-114 0 -187 64t-73 192v188h-78v135h78v103h-80v135h80v192q0 128 73 192t187 64q110 0 181 -59t71 -187v-110h-166v84q0 114 -92 114q-45 0 -66.5 -36.5t-21.5 -120.5v-133h239v-135h-239v-103h241v-135
h-241v-158q0 -64 26 -96.5t70 -32.5q45 0 64.5 41.5t19.5 138.5h166v-90z" />
    <glyph glyph-name="G.alt" horiz-adv-x="720" 
d="M489 692h-139v162h307v-553q0 -328 -292 -328q-293 0 -293 328v967q0 176 77 251.5t216 75.5t215.5 -76t76.5 -251v-246h-168v260q0 156 -124 156q-58 0 -91.5 -37.5t-33.5 -118.5v-995q0 -156 125 -156q124 0 124 156v405z" />
    <glyph glyph-name="Gbreve.alt" horiz-adv-x="720" 
d="M489 692h-139v162h307v-553q0 -328 -292 -328q-293 0 -293 328v967q0 176 77 251.5t216 75.5t215.5 -76t76.5 -251v-246h-168v260q0 156 -124 156q-58 0 -91.5 -37.5t-33.5 -118.5v-995q0 -156 125 -156q124 0 124 156v405zM582 1917q-1 -104 -57.5 -160.5t-155.5 -56.5
t-157 57t-58 160h98q0 -47 29 -74.5t88 -27.5q57 0 85.5 27.5t30.5 74.5h97z" />
    <glyph glyph-name="Gcircumflex.alt" horiz-adv-x="720" 
d="M489 692h-139v162h307v-553q0 -328 -292 -328q-293 0 -293 328v967q0 176 77 251.5t216 75.5t215.5 -76t76.5 -251v-246h-168v260q0 156 -124 156q-58 0 -91.5 -37.5t-33.5 -118.5v-995q0 -156 125 -156q124 0 124 156v405zM451 1716l-86 144l-78 -144h-140l136 248h163
l140 -248h-135z" />
    <glyph glyph-name="Gcommaaccent.alt" horiz-adv-x="720" 
d="M489 692h-139v162h307v-553q0 -328 -292 -328q-293 0 -293 328v967q0 176 77 251.5t216 75.5t215.5 -76t76.5 -251v-246h-168v260q0 156 -124 156q-58 0 -91.5 -37.5t-33.5 -118.5v-995q0 -156 125 -156q124 0 124 156v405zM225 -371l92 269h177l-144 -269h-125z" />
    <glyph glyph-name="Gdotaccent.alt" horiz-adv-x="720" 
d="M489 692h-139v162h307v-553q0 -328 -292 -328q-293 0 -293 328v967q0 176 77 251.5t216 75.5t215.5 -76t76.5 -251v-246h-168v260q0 156 -124 156q-58 0 -91.5 -37.5t-33.5 -118.5v-995q0 -156 125 -156q124 0 124 156v405zM365 1702q-43 0 -74 30t-31 74t31 74.5
t74 30.5q44 0 74 -30.5t30 -74.5t-30 -74t-74 -30z" />
    <glyph glyph-name="IJ.alt" horiz-adv-x="710" 
d="M80 0v1569h168v-1569h-168zM342 -25v158h8q48 0 81.5 38t33.5 118v1280h168v-1278q0 -74 -17 -131t-44 -91t-65 -56t-76 -30t-81 -8h-8z" />
    <glyph glyph-name="J.alt" horiz-adv-x="380" 
d="M12 -25v158h8q48 0 81.5 38t33.5 118v1280h168v-1278q0 -74 -17 -131t-44 -91t-65 -56t-76 -30t-81 -8h-8z" />
    <glyph glyph-name="Jcircumflex.alt" horiz-adv-x="380" 
d="M10 -25v158h8q48 0 81.5 38t33.5 118v1280h168v-1278q0 -74 -17 -131t-44 -91t-65 -56t-76 -30t-81 -8h-8zM303 1716l-86 144l-78 -144h-139l135 248h164l139 -248h-135z" />
    <glyph glyph-name="Kappa.alt" horiz-adv-x="675" 
d="M494 0q-19 350 -244 784q215 433 223 785h168q-8 -353 -211 -778q222 -447 232 -791h-168zM80 0v1569h168v-1569h-168z" />
    <glyph glyph-name="M.uni" horiz-adv-x="1122" 
d="M877 0v1268q0 172 -107 172q-56 0 -89.5 -41t-33.5 -123v-1276h-168v1268q0 172 -110 172q-119 0 -119 -176v-1264h-170v1569h147l11 -103q63 129 200 129q146 0 191 -139q31 64 85 101.5t126 37.5q40 0 74 -13t64.5 -42t48 -84.5t17.5 -132.5v-1323h-167z" />
    <glyph glyph-name="N.uni" horiz-adv-x="724" 
d="M479 0v1268q0 96 -29 134t-81 38q-54 0 -86.5 -43.5t-32.5 -132.5v-1264h-170v1569h147l11 -103q63 129 198 129q42 0 77.5 -13t66.5 -42t49 -84.5t18 -132.5v-1323h-168z" />
    <glyph glyph-name="Nacute.uni" horiz-adv-x="724" 
d="M479 0v1268q0 96 -29 134t-81 38q-54 0 -86.5 -43.5t-32.5 -132.5v-1264h-170v1569h147l11 -103q63 129 198 129q42 0 77.5 -13t66.5 -42t49 -84.5t18 -132.5v-1323h-168zM270 1716l103 238h186l-160 -238h-129z" />
    <glyph glyph-name="Ncaron.uni" horiz-adv-x="724" 
d="M479 0v1268q0 96 -29 134t-81 38q-54 0 -86.5 -43.5t-32.5 -132.5v-1264h-170v1569h147l11 -103q63 129 198 129q42 0 77.5 -13t66.5 -42t49 -84.5t18 -132.5v-1323h-168zM285 1716l-140 248h138l82 -141l81 141h138l-135 -248h-164z" />
    <glyph glyph-name="Ncommaaccent.uni" horiz-adv-x="724" 
d="M479 0v1268q0 96 -29 134t-81 38q-54 0 -86.5 -43.5t-32.5 -132.5v-1264h-170v1569h147l11 -103q63 129 198 129q42 0 77.5 -13t66.5 -42t49 -84.5t18 -132.5v-1323h-168zM219 -371l92 269h176l-143 -269h-125z" />
    <glyph glyph-name="Ntilde.uni" horiz-adv-x="724" 
d="M479 0v1268q0 96 -29 134t-81 38q-54 0 -86.5 -43.5t-32.5 -132.5v-1264h-170v1569h147l11 -103q63 129 198 129q42 0 77.5 -13t66.5 -42t49 -84.5t18 -132.5v-1323h-168zM592 1878q-6 -74 -42.5 -118t-96.5 -44q-31 0 -77 18.5t-69 18.5q-20 0 -30.5 -7.5t-14.5 -29.5
h-123q0 36 13 71.5t45 63t77 27.5q32 0 81 -17.5t67 -17.5q40 0 43 35h127z" />
    <glyph glyph-name="OE.uni" horiz-adv-x="1118" 
d="M1055 301q0 -176 -76.5 -252t-214.5 -76q-72 0 -123.5 19.5t-87.5 70.5q-36 -51 -84.5 -70.5t-114.5 -19.5q-282 0 -282 328v967q0 327 286 327q67 0 115.5 -19.5t83.5 -70.5q64 90 207 90q291 0 291 -327v-512h-418v-477q0 -76 34.5 -112t92.5 -36q66 0 94.5 47.5
t28.5 153.5v192h168v-223zM469 1290q0 73 -34 110.5t-81 37.5q-51 0 -82.5 -38t-31.5 -118v-995q0 -81 31.5 -118.5t82.5 -37.5q48 0 81.5 37t33.5 111v1011zM887 1282q0 81 -33.5 118.5t-91.5 37.5q-57 0 -91 -36.5t-34 -111.5v-375h250v367z" />
    <glyph glyph-name="Omega.sc" horiz-adv-x="645" 
d="M346 0v172q66 17 66 119v674q0 62 -25 92t-65 30t-65.5 -30t-25.5 -92v-674q0 -102 66 -119v-172h-244v160l148 -10q-73 23 -104 78.5t-31 156.5v604q0 59 16 105t41.5 74t61.5 46t71 24.5t74 6.5q49 0 90.5 -11.5t78.5 -39t58 -79.5t21 -126v-604q0 -100 -31 -156
t-105 -79l148 10v-160h-244z" />
    <glyph glyph-name="R.alt" horiz-adv-x="702" 
d="M467 0v508q0 83 -31.5 119.5t-93.5 36.5h-94v-664h-168v1569h282q139 0 206 -75.5t67 -250.5v-256q0 -186 -150 -237q150 -33 150 -252v-498h-168zM467 1251q0 85 -27 119.5t-88 34.5h-104v-580h104q61 0 88 35.5t27 120.5v270z" />
    <glyph glyph-name="Racute.alt" horiz-adv-x="702" 
d="M467 0v508q0 83 -31.5 119.5t-93.5 36.5h-94v-664h-168v1569h282q139 0 206 -75.5t67 -250.5v-256q0 -186 -150 -237q150 -33 150 -252v-498h-168zM467 1251q0 85 -27 119.5t-88 34.5h-104v-580h104q61 0 88 35.5t27 120.5v270zM242 1716l102 238h186l-159 -238h-129z
" />
    <glyph glyph-name="Rcaron.alt" horiz-adv-x="702" 
d="M467 0v508q0 83 -31.5 119.5t-93.5 36.5h-94v-664h-168v1569h282q139 0 206 -75.5t67 -250.5v-256q0 -186 -150 -237q150 -33 150 -252v-498h-168zM467 1251q0 85 -27 119.5t-88 34.5h-104v-580h104q61 0 88 35.5t27 120.5v270zM250 1716l-139 248h137l82 -141l82 141
h137l-135 -248h-164z" />
    <glyph glyph-name="Rcommaaccent.alt" horiz-adv-x="702" 
d="M467 0v508q0 83 -31.5 119.5t-93.5 36.5h-94v-664h-168v1569h282q139 0 206 -75.5t67 -250.5v-256q0 -186 -150 -237q150 -33 150 -252v-498h-168zM467 1251q0 85 -27 119.5t-88 34.5h-104v-580h104q61 0 88 35.5t27 120.5v270zM207 -371l92 269h176l-143 -269h-125z" />
    <glyph glyph-name="U.uni" horiz-adv-x="724" 
d="M498 0l-13 102q-61 -129 -198 -129q-90 0 -149.5 62.5t-59.5 210.5v1323h168v-1270q0 -170 108 -170q121 0 121 174v1266h168v-1569h-145z" />
    <glyph glyph-name="Uacute.uni" horiz-adv-x="724" 
d="M498 0l-13 102q-61 -129 -198 -129q-90 0 -149.5 62.5t-59.5 210.5v1323h168v-1270q0 -170 108 -170q121 0 121 174v1266h168v-1569h-145zM283 1716l102 238h186l-159 -238h-129z" />
    <glyph glyph-name="Ubreve.uni" horiz-adv-x="724" 
d="M498 0l-13 102q-61 -129 -198 -129q-90 0 -149.5 62.5t-59.5 210.5v1323h168v-1270q0 -170 108 -170q121 0 121 174v1266h168v-1569h-145zM573 1917q-1 -104 -57.5 -160.5t-155.5 -56.5t-157 57t-58 160h99q0 -47 28.5 -74.5t87.5 -27.5q57 0 86 27.5t31 74.5h96z" />
    <glyph glyph-name="Ucircumflex.uni" horiz-adv-x="724" 
d="M498 0l-13 102q-61 -129 -198 -129q-90 0 -149.5 62.5t-59.5 210.5v1323h168v-1270q0 -170 108 -170q121 0 121 174v1266h168v-1569h-145zM434 1716l-86 144l-78 -144h-139l135 248h164l139 -248h-135z" />
    <glyph glyph-name="Udieresis.uni" horiz-adv-x="724" 
d="M498 0l-13 102q-61 -129 -198 -129q-90 0 -149.5 62.5t-59.5 210.5v1323h168v-1270q0 -170 108 -170q121 0 121 174v1266h168v-1569h-145zM205 1696q-43 0 -74 31t-31 75q0 43 31 74t74 31q44 0 74 -31t30 -74q0 -44 -30 -75t-74 -31zM514 1696q-43 0 -73.5 31t-30.5 75
q0 43 30.5 74t73.5 31q44 0 74 -31t30 -74q0 -44 -30 -75t-74 -31z" />
    <glyph glyph-name="Ugrave.uni" horiz-adv-x="724" 
d="M498 0l-13 102q-61 -129 -198 -129q-90 0 -149.5 62.5t-59.5 210.5v1323h168v-1270q0 -170 108 -170q121 0 121 174v1266h168v-1569h-145zM311 1716l-161 238h186l104 -238h-129z" />
    <glyph glyph-name="Uhungarumlaut.uni" horiz-adv-x="724" 
d="M498 0l-13 102q-61 -129 -198 -129q-90 0 -149.5 62.5t-59.5 210.5v1323h168v-1270q0 -170 108 -170q121 0 121 174v1266h168v-1569h-145zM145 1716l91 242h176l-127 -242h-140zM389 1716l90 242h176l-127 -242h-139z" />
    <glyph glyph-name="Umacron.uni" horiz-adv-x="724" 
d="M498 0l-13 102q-61 -129 -198 -129q-90 0 -149.5 62.5t-59.5 210.5v1323h168v-1270q0 -170 108 -170q121 0 121 174v1266h168v-1569h-145zM123 1716v135h475v-135h-475z" />
    <glyph glyph-name="Uogonek.uni" horiz-adv-x="724" 
d="M606 -389q-101 7 -161 66t-60 137q0 110 113 176l-11 112q-70 -129 -211 -129q-94 0 -146 65.5t-52 221.5v1309h168v-1274q0 -166 100 -166q55 0 92 45.5t37 134.5v1260h168v-1569q-117 -81 -117 -172q0 -94 138 -133z" />
    <glyph glyph-name="Uring.uni" horiz-adv-x="724" 
d="M428 1827q0 29 -20 48t-50 19q-29 0 -48 -19t-19 -48q0 -30 19 -50t48 -20t49.5 20.5t20.5 49.5zM358 1671q-66 0 -109.5 45t-43.5 111t43.5 109.5t109.5 43.5t111 -43.5t45 -109.5t-45 -111t-111 -45zM498 0l-13 102q-61 -129 -198 -129q-90 0 -149.5 62.5t-59.5 210.5
v1323h168v-1270q0 -170 108 -170q121 0 121 174v1266h168v-1569h-145z" />
    <glyph glyph-name="Utilde.uni" horiz-adv-x="724" 
d="M498 0l-13 102q-61 -129 -198 -129q-90 0 -149.5 62.5t-59.5 210.5v1323h168v-1270q0 -170 108 -170q121 0 121 174v1266h168v-1569h-145zM586 1878q-6 -74 -43 -118t-97 -44q-31 0 -76.5 18.5t-68.5 18.5q-20 0 -30.5 -7.5t-14.5 -29.5h-123q0 36 13 71.5t45 63t77 27.5
q32 0 81 -17.5t67 -17.5q40 0 43 35h127z" />
    <glyph glyph-name="a.alt" horiz-adv-x="595" 
d="M391 0l-18 94q-52 -110 -162 -110q-89 0 -123.5 77t-34.5 244v74q0 164 48.5 233.5t146.5 69.5h117v186q0 87 -16 121.5t-58 34.5t-58 -34.5t-16 -121.5v-77h-164v81q0 163 54.5 234.5t185.5 71.5q125 0 180 -68.5t55 -230.5v-879h-137zM365 553h-72q-41 0 -58.5 -41.5
t-17.5 -130.5v-90q0 -84 15 -119t55 -35t59 36.5t19 129.5v250z" />
    <glyph glyph-name="a.sc" horiz-adv-x="598" 
d="M422 0l-31 270h-180l-33 -270h-166l164 1223h246l166 -1223h-166zM299 1036l-72 -608h144z" />
    <glyph glyph-name="a.sc.uni" horiz-adv-x="647" 
d="M420 0l-6 76q-55 -96 -172 -96q-185 0 -185 206v281q0 205 185 205q104 0 164 -84v377q0 62 -27 92t-64 30q-39 0 -64.5 -29.5t-25.5 -92.5v-166h-166v198q0 66 22.5 115.5t60.5 77.5t83.5 41.5t96.5 13.5q116 0 182.5 -62t66.5 -192v-991h-151zM403 381q0 135 -94 135
q-38 0 -61 -28t-23 -109v-107q0 -137 86 -137q92 0 92 137v109z" />
    <glyph glyph-name="aacute.alt" horiz-adv-x="595" 
d="M391 0l-18 94q-52 -110 -162 -110q-89 0 -123.5 77t-34.5 244v74q0 164 48.5 233.5t146.5 69.5h117v186q0 87 -16 121.5t-58 34.5t-58 -34.5t-16 -121.5v-77h-164v81q0 163 54.5 234.5t185.5 71.5q125 0 180 -68.5t55 -230.5v-879h-137zM365 553h-72q-41 0 -58.5 -41.5
t-17.5 -130.5v-90q0 -84 15 -119t55 -35t59 36.5t19 129.5v250zM201 1309l102 237h186l-159 -237h-129z" />
    <glyph glyph-name="aacute.sc" horiz-adv-x="598" 
d="M217 1333l92 211h180l-153 -211h-119zM422 0l-31 270h-180l-33 -270h-166l164 1223h246l166 -1223h-166zM299 1036l-72 -608h144z" />
    <glyph glyph-name="aacute.sc.uni" horiz-adv-x="647" 
d="M244 1333l90 211h180l-152 -211h-118zM420 0l-6 76q-55 -96 -172 -96q-185 0 -185 206v281q0 205 185 205q104 0 164 -84v377q0 62 -27 92t-64 30q-39 0 -64.5 -29.5t-25.5 -92.5v-166h-166v198q0 66 22.5 115.5t60.5 77.5t83.5 41.5t96.5 13.5q116 0 182.5 -62
t66.5 -192v-991h-151zM403 381q0 135 -94 135q-38 0 -61 -28t-23 -109v-107q0 -137 86 -137q92 0 92 137v109z" />
    <glyph glyph-name="abreve.alt" horiz-adv-x="595" 
d="M391 0l-18 94q-52 -110 -162 -110q-89 0 -123.5 77t-34.5 244v74q0 164 48.5 233.5t146.5 69.5h117v186q0 87 -16 121.5t-58 34.5t-58 -34.5t-16 -121.5v-77h-164v81q0 163 54.5 234.5t185.5 71.5q125 0 180 -68.5t55 -230.5v-879h-137zM365 553h-72q-41 0 -58.5 -41.5
t-17.5 -130.5v-90q0 -84 15 -119t55 -35t59 36.5t19 129.5v250zM506 1509q-1 -104 -57.5 -160.5t-155.5 -56.5t-157 57t-58 160h98q0 -47 29 -74.5t88 -27.5q57 0 86 27.5t31 74.5h96z" />
    <glyph glyph-name="abreve.sc" horiz-adv-x="598" 
d="M489 1518q-10 -201 -190 -201q-185 0 -188 201h90q5 -39 25.5 -61.5t72.5 -22.5t72.5 22.5t25.5 61.5h92zM422 0l-31 270h-180l-33 -270h-166l164 1223h246l166 -1223h-166zM299 1036l-72 -608h144z" />
    <glyph glyph-name="abreve.sc.uni" horiz-adv-x="647" 
d="M504 1518q-10 -201 -191 -201q-185 0 -188 201h90q5 -39 25.5 -61.5t72.5 -22.5t73 22.5t26 61.5h92zM420 0l-6 76q-55 -96 -172 -96q-185 0 -185 206v281q0 205 185 205q104 0 164 -84v377q0 62 -27 92t-64 30q-39 0 -64.5 -29.5t-25.5 -92.5v-166h-166v198
q0 66 22.5 115.5t60.5 77.5t83.5 41.5t96.5 13.5q116 0 182.5 -62t66.5 -192v-991h-151zM403 381q0 135 -94 135q-38 0 -61 -28t-23 -109v-107q0 -137 86 -137q92 0 92 137v109z" />
    <glyph glyph-name="acircumflex.alt" horiz-adv-x="595" 
d="M391 0l-18 94q-52 -110 -162 -110q-89 0 -123.5 77t-34.5 244v74q0 164 48.5 233.5t146.5 69.5h117v186q0 87 -16 121.5t-58 34.5t-58 -34.5t-16 -121.5v-77h-164v81q0 163 54.5 234.5t185.5 71.5q125 0 180 -68.5t55 -230.5v-879h-137zM365 553h-72q-41 0 -58.5 -41.5
t-17.5 -130.5v-90q0 -84 15 -119t55 -35t59 36.5t19 129.5v250zM375 1309l-86 143l-78 -143h-139l135 247h164l139 -247h-135z" />
    <glyph glyph-name="acircumflex.sc" horiz-adv-x="598" 
d="M369 1333l-72 125l-64 -125h-131l121 230h146l127 -230h-127zM422 0l-31 270h-180l-33 -270h-166l164 1223h246l166 -1223h-166zM299 1036l-72 -608h144z" />
    <glyph glyph-name="acircumflex.sc.uni" horiz-adv-x="647" 
d="M385 1333l-72 125l-63 -125h-133l121 230h145l127 -230h-125zM420 0l-6 76q-55 -96 -172 -96q-185 0 -185 206v281q0 205 185 205q104 0 164 -84v377q0 62 -27 92t-64 30q-39 0 -64.5 -29.5t-25.5 -92.5v-166h-166v198q0 66 22.5 115.5t60.5 77.5t83.5 41.5t96.5 13.5
q116 0 182.5 -62t66.5 -192v-991h-151zM403 381q0 135 -94 135q-38 0 -61 -28t-23 -109v-107q0 -137 86 -137q92 0 92 137v109z" />
    <glyph glyph-name="acute.sc" horiz-adv-x="243" 
d="M0 1016l90 211h180l-151 -211h-119z" />
    <glyph glyph-name="adieresis.alt" horiz-adv-x="593" 
d="M391 0l-18 94q-52 -110 -162 -110q-89 0 -123.5 77t-34.5 244v74q0 164 48.5 233.5t146.5 69.5h117v186q0 87 -16 121.5t-58 34.5t-58 -34.5t-16 -121.5v-77h-164v81q0 163 54.5 234.5t185.5 71.5q125 0 180 -68.5t55 -230.5v-879h-137zM365 553h-72q-41 0 -58.5 -41.5
t-17.5 -130.5v-90q0 -84 15 -119t55 -35t59 36.5t19 129.5v250zM137 1288q-43 0 -73.5 31.5t-30.5 75.5q0 43 30.5 73.5t73.5 30.5q44 0 74.5 -30.5t30.5 -73.5q0 -44 -30.5 -75.5t-74.5 -31.5zM446 1288q-43 0 -73.5 31.5t-30.5 75.5q0 43 30.5 73.5t73.5 30.5
q44 0 74.5 -30.5t30.5 -73.5q0 -44 -30.5 -75.5t-74.5 -31.5z" />
    <glyph glyph-name="adieresis.sc" horiz-adv-x="598" 
d="M162 1317q-39 0 -69 29t-30 69t30 68t69 28t67.5 -27.5t28.5 -68.5t-28.5 -69.5t-67.5 -28.5zM434 1317q-39 0 -66.5 28.5t-27.5 69.5t27.5 68.5t66.5 27.5q41 0 69.5 -27.5t28.5 -68.5t-28.5 -69.5t-69.5 -28.5zM422 0l-31 270h-180l-33 -270h-166l164 1223h246
l166 -1223h-166zM299 1036l-72 -608h144z" />
    <glyph glyph-name="adieresis.sc.uni" horiz-adv-x="647" 
d="M178 1317q-39 0 -68.5 28.5t-29.5 69.5q0 40 29.5 68t68.5 28t67.5 -27.5t28.5 -68.5t-28.5 -69.5t-67.5 -28.5zM453 1317q-41 0 -69 28.5t-28 69.5t28 68.5t69 27.5t68.5 -27.5t27.5 -68.5t-28.5 -69.5t-67.5 -28.5zM420 0l-6 76q-55 -96 -172 -96q-185 0 -185 206v281
q0 205 185 205q104 0 164 -84v377q0 62 -27 92t-64 30q-39 0 -64.5 -29.5t-25.5 -92.5v-166h-166v198q0 66 22.5 115.5t60.5 77.5t83.5 41.5t96.5 13.5q116 0 182.5 -62t66.5 -192v-991h-151zM403 381q0 135 -94 135q-38 0 -61 -28t-23 -109v-107q0 -137 86 -137
q92 0 92 137v109z" />
    <glyph glyph-name="ae.sc" horiz-adv-x="901" 
d="M410 0v270h-181l-69 -270h-164l317 1223h539v-158h-277v-369h267v-157h-267v-383h277v-156h-442zM410 1001l-142 -565h142v565z" />
    <glyph glyph-name="ae.sc.uni" horiz-adv-x="991" 
d="M932 229q0 -129 -69 -189t-191 -60q-182 0 -240 124q-36 -69 -83 -96.5t-109 -27.5q-89 0 -136 48.5t-47 159.5v279q0 205 185 205q104 0 164 -84v383q0 61 -26.5 88.5t-66.5 27.5q-88 0 -88 -145v-143h-166v198q0 66 22.5 115.5t60.5 77.5t83.5 41.5t96.5 13.5
q111 0 167 -71q61 71 181 71q117 0 189.5 -60.5t72.5 -189.5v-424h-361v-321q0 -113 99 -113q96 0 96 142v131h166v-181zM766 965q0 122 -98 122q-47 0 -72 -34t-25 -121v-203h195v236zM311 135q45 0 68.5 34t23.5 116v73q0 86 -22.5 122t-71.5 36q-42 0 -63 -35.5
t-21 -142.5v-49q0 -87 23 -120.5t63 -33.5z" />
    <glyph glyph-name="aeacute.sc" horiz-adv-x="901" 
d="M485 1333l90 211h181l-152 -211h-119zM410 0v270h-181l-69 -270h-164l317 1223h539v-158h-277v-369h267v-157h-267v-383h277v-156h-442zM410 1001l-142 -565h142v565z" />
    <glyph glyph-name="aeacute.sc.uni" horiz-adv-x="991" 
d="M414 1333l90 211h180l-152 -211h-118zM932 229q0 -129 -69 -189t-191 -60q-182 0 -240 124q-36 -69 -83 -96.5t-109 -27.5q-89 0 -136 48.5t-47 159.5v279q0 205 185 205q104 0 164 -84v383q0 61 -26.5 88.5t-66.5 27.5q-88 0 -88 -145v-143h-166v198q0 66 22.5 115.5
t60.5 77.5t83.5 41.5t96.5 13.5q111 0 167 -71q61 71 181 71q117 0 189.5 -60.5t72.5 -189.5v-424h-361v-321q0 -113 99 -113q96 0 96 142v131h166v-181zM766 965q0 122 -98 122q-47 0 -72 -35t-25 -120v-203h195v236zM311 135q45 0 68.5 34.5t23.5 115.5v73q0 86 -22.5 122
t-71.5 36q-42 0 -63 -35.5t-21 -142.5v-49q0 -87 23 -120.5t63 -33.5z" />
    <glyph glyph-name="agrave.alt" horiz-adv-x="595" 
d="M391 0l-18 94q-52 -110 -162 -110q-89 0 -123.5 77t-34.5 244v74q0 164 48.5 233.5t146.5 69.5h117v186q0 87 -16 121.5t-58 34.5t-58 -34.5t-16 -121.5v-77h-164v81q0 163 54.5 234.5t185.5 71.5q125 0 180 -68.5t55 -230.5v-879h-137zM365 553h-72q-41 0 -58.5 -41.5
t-17.5 -130.5v-90q0 -84 15 -119t55 -35t59 36.5t19 129.5v250zM266 1309l-162 237h187l104 -237h-129z" />
    <glyph glyph-name="agrave.sc" horiz-adv-x="598" 
d="M252 1333l-156 211h180l93 -211h-117zM422 0l-31 270h-180l-33 -270h-166l164 1223h246l166 -1223h-166zM299 1036l-72 -608h144z" />
    <glyph glyph-name="agrave.sc.uni" horiz-adv-x="647" 
d="M276 1333l-155 211h180l92 -211h-117zM420 0l-6 76q-55 -96 -172 -96q-185 0 -185 206v281q0 205 185 205q104 0 164 -84v377q0 62 -27 92t-64 30q-39 0 -64.5 -29.5t-25.5 -92.5v-166h-166v198q0 66 22.5 115.5t60.5 77.5t83.5 41.5t96.5 13.5q116 0 182.5 -62
t66.5 -192v-991h-151zM403 381q0 135 -94 135q-38 0 -61 -28t-23 -109v-107q0 -137 86 -137q92 0 92 137v109z" />
    <glyph glyph-name="alpha.alt" horiz-adv-x="602" 
d="M399 0l-18 92q-57 -108 -168 -108q-88 0 -120 71t-32 242v543q0 189 54 263.5t184 74.5t184 -75t54 -269v-834h-138zM373 889q0 73 -17.5 104t-56.5 31q-47 0 -60.5 -40t-13.5 -146v-547q0 -87 15 -121.5t55 -34.5t59 37.5t19 128.5v588z" />
    <glyph glyph-name="alpha.sc" horiz-adv-x="598" 
d="M422 0l-31 270h-180l-33 -270h-166l164 1223h246l166 -1223h-166zM299 1036l-72 -608h144z" />
    <glyph glyph-name="alphatonos.alt" horiz-adv-x="602" 
d="M195 1309l102 237h186l-159 -237h-129zM399 0l-18 92q-57 -108 -168 -108q-88 0 -120 71t-32 242v543q0 188 54.5 263t183.5 75q130 0 184 -75t54 -269v-834h-138zM373 889q0 73 -17.5 104t-56.5 31q-47 0 -60.5 -40t-13.5 -146v-547q0 -87 15 -121.5t55 -34.5t59 37.5
t19 128.5v588z" />
    <glyph glyph-name="alphatonos.sc" horiz-adv-x="598" 
d="M422 0l-31 270h-180l-33 -270h-166l164 1223h246l166 -1223h-166zM299 1036l-72 -608h144zM215 1333l90 211h180l-151 -211h-119z" />
    <glyph glyph-name="amacron.alt" horiz-adv-x="595" 
d="M391 0l-18 94q-52 -110 -162 -110q-89 0 -123.5 77t-34.5 244v74q0 164 48.5 233.5t146.5 69.5h117v186q0 87 -16 121.5t-58 34.5t-58 -34.5t-16 -121.5v-77h-164v81q0 163 54.5 234.5t185.5 71.5q125 0 180 -68.5t55 -230.5v-879h-137zM365 553h-72q-41 0 -58.5 -41.5
t-17.5 -130.5v-90q0 -84 15 -119t55 -35t59 36.5t19 129.5v250zM55 1309v135h475v-135h-475z" />
    <glyph glyph-name="amacron.sc" horiz-adv-x="598" 
d="M88 1333v133h424v-133h-424zM422 0l-31 270h-180l-33 -270h-166l164 1223h246l166 -1223h-166zM299 1036l-72 -608h144z" />
    <glyph glyph-name="amacron.sc.uni" horiz-adv-x="647" 
d="M102 1333v133h424v-133h-424zM420 0l-6 76q-55 -96 -172 -96q-185 0 -185 206v281q0 205 185 205q104 0 164 -84v377q0 62 -27 92t-64 30q-39 0 -64.5 -29.5t-25.5 -92.5v-166h-166v198q0 66 22.5 115.5t60.5 77.5t83.5 41.5t96.5 13.5q116 0 182.5 -62t66.5 -192v-991
h-151zM403 381q0 135 -94 135q-38 0 -61 -28t-23 -109v-107q0 -137 86 -137q92 0 92 137v109z" />
    <glyph glyph-name="ampersand.sc" horiz-adv-x="659" 
d="M565 563v-311q0 -136 -61.5 -204t-192.5 -68q-137 0 -196.5 78.5t-59.5 232.5v129q0 90 28 141t107 76q-80 22 -107.5 68.5t-27.5 134.5v137q0 266 264 266q126 0 186 -62.5t60 -191.5v-31h-166q0 129 -86 129q-92 0 -92 -147v-121q0 -31 15 -53t38 -32.5t43.5 -14.5
t40.5 -4h41v96h166v-96h68v-152h-68zM399 563h-41q-20 0 -40.5 -4.5t-43.5 -14.5t-38 -32.5t-15 -54.5v-168q0 -152 88 -152q39 0 64.5 29.5t25.5 91.5v305z" />
    <glyph glyph-name="angstrom.sc" horiz-adv-x="628" 
d="M436 0l-30 270h-181l-32 -270h-166l188 1204q-41 38 -41 96q0 60 39.5 98t99.5 38q61 0 101.5 -38.5t40.5 -97.5q0 -56 -43 -96l190 -1204h-166zM313 1053l-69 -625h141zM362 1296q0 23 -13 36.5t-36 13.5q-21 0 -35 -13.5t-14 -36.5t14 -36t35 -13q49 0 49 49z" />
    <glyph glyph-name="aogonek.alt" horiz-adv-x="595" 
d="M489 -389q-101 7 -161 66t-60 137q0 53 31.5 100.5t95.5 81.5l-22 98q-50 -110 -162 -110q-89 0 -123.5 77t-34.5 244v74q0 164 48.5 233.5t146.5 69.5h117v186q0 87 -16 121.5t-58 34.5t-58 -34.5t-16 -121.5v-77h-164v81q0 163 54.5 234.5t185.5 71.5
q124 0 179.5 -69.5t55.5 -229.5v-879q-118 -77 -118 -172t137 -133zM365 553h-72q-41 0 -58.5 -41.5t-17.5 -130.5v-90q0 -84 15 -119t55 -35t59 36.5t19 129.5v250z" />
    <glyph glyph-name="aogonek.sc" horiz-adv-x="595" 
d="M551 -336q-91 4 -148 56t-57 122q0 86 76 140l-37 288h-176l-33 -270h-166l164 1223h246l166 -1223q-94 -61 -94 -137q0 -39 29.5 -70.5t86.5 -44.5zM297 1036l-72 -608h144z" />
    <glyph glyph-name="aogonek.sc.uni" horiz-adv-x="647" 
d="M571 0q-92 -66 -92 -141q0 -43 33.5 -71t81.5 -40l-57 -84q-90 4 -146.5 56.5t-56.5 123.5q0 89 86 148l-6 84q-55 -96 -172 -96q-185 0 -185 206v240q0 129 41 187.5t142 58.5q59 0 97.5 -20t68.5 -64v377q0 63 -26 92.5t-65 29.5t-64.5 -29.5t-25.5 -92.5v-166h-166
v198q0 66 22.5 115.5t60.5 77.5t83.5 41.5t96.5 13.5q116 0 182.5 -62t66.5 -192v-991zM403 352q0 90 -22.5 127t-71.5 37q-42 0 -63 -33t-21 -129v-57q0 -95 23.5 -128.5t62.5 -33.5q92 0 92 137v80z" />
    <glyph glyph-name="aring.alt" horiz-adv-x="595" 
d="M360 1419q0 29 -20 48.5t-49 19.5t-48.5 -19.5t-19.5 -48.5t19.5 -49t48.5 -20t49 20t20 49zM291 1264q-66 0 -110 44.5t-44 110.5t44 110t110 44t110.5 -44t44.5 -110t-44.5 -110.5t-110.5 -44.5zM391 0l-18 94q-52 -110 -162 -110q-89 0 -123.5 77t-34.5 244v74
q0 164 48.5 233.5t146.5 69.5h117v186q0 87 -16 121.5t-58 34.5t-58 -34.5t-16 -121.5v-77h-164v81q0 163 54.5 234.5t185.5 71.5q125 0 180 -68.5t55 -230.5v-879h-137zM365 553h-72q-41 0 -58.5 -41.5t-17.5 -130.5v-90q0 -84 15 -119t55 -35t59 36.5t19 129.5v250z" />
    <glyph glyph-name="aring.sc" horiz-adv-x="598" 
d="M348 1442q0 49 -49 49t-49 -49t49 -49t49 49zM299 1300q-60 0 -100.5 41t-40.5 101t40.5 99.5t100.5 39.5t99.5 -39.5t39.5 -99.5t-39.5 -101t-99.5 -41zM422 0l-31 270h-180l-33 -270h-166l164 1223h246l166 -1223h-166zM299 1036l-72 -608h144z" />
    <glyph glyph-name="aring.sc.uni" horiz-adv-x="647" 
d="M362 1442q0 49 -49 49t-49 -49t49 -49t49 49zM313 1300q-60 0 -100.5 41t-40.5 101t40.5 99.5t100.5 39.5t100 -39.5t40 -99.5t-40 -101t-100 -41zM420 0l-6 76q-55 -96 -172 -96q-185 0 -185 206v281q0 205 185 205q104 0 164 -84v377q0 62 -27 92t-64 30
q-39 0 -64.5 -29.5t-25.5 -92.5v-166h-166v198q0 66 22.5 115.5t60.5 77.5t83.5 41.5t96.5 13.5q116 0 182.5 -62t66.5 -192v-991h-151zM403 381q0 135 -94 135q-38 0 -61 -28t-23 -109v-107q0 -137 86 -137q92 0 92 137v109z" />
    <glyph glyph-name="asterisk.sc" horiz-adv-x="509" 
d="M311 786l-55 154l-57 -156l-111 64l113 133l-158 -27v123l152 -24l-111 129l111 63l61 -162l55 160l113 -61l-109 -131l150 24v-121l-152 27l111 -133z" />
    <glyph glyph-name="atilde.alt" horiz-adv-x="595" 
d="M391 0l-18 94q-52 -110 -162 -110q-89 0 -123.5 77t-34.5 244v74q0 164 48.5 233.5t146.5 69.5h117v186q0 87 -16 121.5t-58 34.5t-58 -34.5t-16 -121.5v-77h-164v81q0 163 54.5 234.5t185.5 71.5q125 0 180 -68.5t55 -230.5v-879h-137zM365 553h-72q-41 0 -58.5 -41.5
t-17.5 -130.5v-90q0 -84 15 -119t55 -35t59 36.5t19 129.5v250zM518 1470q-6 -74 -42.5 -117.5t-96.5 -43.5q-31 0 -77 18.5t-69 18.5q-20 0 -30.5 -7.5t-14.5 -29.5h-122q0 36 13 71t45 62.5t77 27.5q32 0 80.5 -17t66.5 -17q40 0 43 34h127z" />
    <glyph glyph-name="atilde.sc" horiz-adv-x="598" 
d="M498 1489q-5 -71 -33 -112.5t-82 -41.5q-26 0 -69 15.5t-66 15.5q-39 0 -41 -33h-107q10 154 117 154q26 0 68 -15.5t65 -15.5q41 0 43 33h105zM422 0l-31 270h-180l-33 -270h-166l164 1223h246l166 -1223h-166zM299 1036l-72 -608h144z" />
    <glyph glyph-name="atilde.sc.uni" horiz-adv-x="647" 
d="M512 1489q-5 -71 -33 -112.5t-82 -41.5q-27 0 -72 15.5t-63 15.5q-39 0 -41 -33h-106q11 154 116 154q27 0 69 -15.5t62 -15.5q43 0 46 33h104zM420 0l-8 76q-29 -51 -69.5 -73.5t-100.5 -22.5q-185 0 -185 206v281q0 205 183 205q110 0 163 -84v377q0 63 -25.5 92.5
t-64.5 29.5q-37 0 -63.5 -30t-26.5 -92v-166h-166v198q0 127 76 187.5t189 60.5q115 0 181 -62t66 -192v-991h-149zM403 381q0 135 -96 135q-38 0 -61 -28t-23 -109v-107q0 -137 88 -137q92 0 92 137v109z" />
    <glyph glyph-name="b.sc" horiz-adv-x="634" 
d="M70 0v1223h280q221 0 221 -254v-158q0 -137 -114 -184q71 -28 101 -76.5t30 -120.5v-174q0 -132 -55.5 -194t-165.5 -62h-297zM406 944q0 65 -22 93t-67 28h-81v-363h81q45 0 67 28.5t22 94.5v119zM422 426q0 63 -28.5 92t-76.5 29h-81v-391h98q45 0 66.5 28.5t21.5 94.5
v147z" />
    <glyph glyph-name="beta.sc" horiz-adv-x="634" 
d="M70 0v1223h280q221 0 221 -254v-158q0 -137 -114 -184q71 -28 101 -76.5t30 -120.5v-174q0 -132 -55.5 -194t-165.5 -62h-297zM406 944q0 65 -22 93t-67 28h-81v-363h81q45 0 67 28.5t22 94.5v119zM422 426q0 63 -28.5 92t-76.5 29h-81v-391h98q45 0 66.5 28.5t21.5 94.5
v147z" />
    <glyph glyph-name="braceleft.sc" horiz-adv-x="471" 
d="M438 -272h-137q-154 0 -154 172v311q0 97 -27.5 147.5t-107.5 57.5v114q78 10 106.5 64.5t28.5 144.5v312q0 85 36 128.5t118 43.5h137v-133h-76q-16 0 -27 -7.5t-17 -17.5t-9 -30.5t-3.5 -37t-0.5 -45.5v-266q0 -91 -34 -143.5t-78 -67.5q42 -9 77 -62.5t35 -146.5v-260
q0 -34 0.5 -52t3.5 -38t9 -28.5t17 -14.5t27 -6h76v-139z" />
    <glyph glyph-name="braceright.sc" horiz-adv-x="473" 
d="M324 -100q0 -172 -154 -172h-137v139h76q14 0 23.5 3t15.5 12.5t9 17.5t4.5 28t2 33.5t0.5 44.5v260q0 93 36 146.5t79 62.5q-44 15 -79.5 67.5t-35.5 143.5v266q0 39 -1 57t-6 40.5t-16.5 31.5t-31.5 9h-76v133h137q82 0 118 -43.5t36 -128.5v-312q0 -90 28.5 -144.5
t106.5 -64.5v-114q-80 -7 -107.5 -57.5t-27.5 -147.5v-311z" />
    <glyph glyph-name="bracketleft.sc" horiz-adv-x="419" 
d="M86 -272v1495h301v-133h-141v-1223h141v-139h-301z" />
    <glyph glyph-name="bracketright.sc" horiz-adv-x="419" 
d="M33 -272v137h141v1225h-141v133h301v-1495h-301z" />
    <glyph glyph-name="breve.sc" horiz-adv-x="438" 
d="M408 1198q-10 -201 -189 -201q-95 0 -141.5 52.5t-46.5 148.5h90q2 -38 22.5 -61t75.5 -23q52 0 72.5 22.5t25.5 61.5h91z" />
    <glyph glyph-name="c.sc" horiz-adv-x="622" 
d="M229 258q0 -62 25 -91.5t65 -29.5q91 0 91 144v129h165v-174q0 -73 -21 -125t-58 -79.5t-78 -39.5t-90 -12q-51 0 -95 12.5t-84 40t-63 79.5t-23 124v753q0 58 16 103t41.5 73.5t60.5 46.5t71 25.5t76 7.5q49 0 90 -11.5t78 -38.5t58 -79t21 -125v-194h-165v168
q0 62 -25.5 92t-65.5 30q-90 0 -90 -151v-678z" />
    <glyph glyph-name="cacute.sc" horiz-adv-x="622" 
d="M229 1333l93 211h180l-154 -211h-119zM229 258q0 -62 25 -91.5t65 -29.5q91 0 91 144v129h165v-174q0 -73 -21 -125t-58.5 -79.5t-80.5 -39.5t-96 -12q-37 0 -71 7t-68.5 25.5t-59.5 46.5t-41 73.5t-16 103.5v753q0 71 23.5 123.5t63 80t82 40t90.5 12.5q253 0 253 -254
v-194h-165v168q0 62 -25.5 92t-65.5 30q-90 0 -90 -151v-678z" />
    <glyph glyph-name="caron.sc" horiz-adv-x="454" 
d="M158 1016l-127 229h127l71 -123l64 123h131l-121 -229h-145z" />
    <glyph glyph-name="ccaron.sc" horiz-adv-x="622" 
d="M248 1333l-127 230h127l71 -123l64 123h131l-121 -230h-145zM229 258q0 -62 25 -91.5t65 -29.5q91 0 91 144v129h165v-174q0 -73 -21 -125t-58.5 -79.5t-80.5 -39.5t-96 -12q-37 0 -71 7t-68.5 25.5t-59.5 46.5t-41 73.5t-16 103.5v753q0 71 23.5 123.5t63 80t82 40
t90.5 12.5q253 0 253 -254v-194h-165v168q0 62 -25.5 92t-65.5 30q-90 0 -90 -151v-678z" />
    <glyph glyph-name="ccedilla.sc" horiz-adv-x="616" 
d="M213 -193q23 -14 55 -14q28 0 46 15t18 36t-17 35.5t-51 14.5q-10 0 -16 -3l22 91q-97 13 -155 75t-58 179v753q0 127 73 191.5t189 64.5q108 0 178 -59.5t70 -186.5v-202h-166v168q0 63 -24.5 92.5t-63.5 29.5t-64.5 -29.5t-25.5 -92.5v-707q0 -63 25.5 -92t64.5 -29
t63.5 29t24.5 92v152h166v-174q0 -107 -48.5 -168.5t-131.5 -79.5l-16 -62q51 0 78.5 -31t27.5 -73q0 -52 -41.5 -89.5t-122.5 -37.5q-84 0 -123 22z" />
    <glyph glyph-name="ccircumflex.sc" horiz-adv-x="622" 
d="M391 1333l-72 125l-63 -125h-133l121 230h145l127 -230h-125zM229 258q0 -62 25 -91.5t65 -29.5q91 0 91 144v129h165v-174q0 -73 -21 -125t-58.5 -79.5t-80.5 -39.5t-96 -12q-37 0 -71 7t-68.5 25.5t-59.5 46.5t-41 73.5t-16 103.5v753q0 71 23.5 123.5t63 80t82 40
t90.5 12.5q253 0 253 -254v-194h-165v168q0 62 -25.5 92t-65.5 30q-90 0 -90 -151v-678z" />
    <glyph glyph-name="cdotaccent.sc" horiz-adv-x="622" 
d="M319 1327q-39 0 -67.5 27.5t-28.5 68.5q0 40 28.5 67.5t67.5 27.5q41 0 69 -27t28 -68t-28 -68.5t-69 -27.5zM229 258q0 -62 25 -91.5t65 -29.5q91 0 91 144v129h165v-174q0 -73 -21 -125t-58 -79.5t-78 -39.5t-90 -12q-51 0 -95 12.5t-84 40t-63 79.5t-23 124v753
q0 58 16 103t41.5 73.5t60.5 46.5t71 25.5t76 7.5q49 0 90 -11.5t78 -38.5t58 -79t21 -125v-194h-165v168q0 62 -25.5 92t-65.5 30q-90 0 -90 -151v-678z" />
    <glyph glyph-name="cedilla.sc" horiz-adv-x="366" 
d="M63 -193q23 -14 54 -14q30 0 46.5 14.5t16.5 38.5q0 48 -65 48q-9 0 -15 -3l27 109h115l-21 -74q51 0 78 -31t27 -73q0 -53 -41 -90t-123 -37q-81 0 -123 22z" />
    <glyph glyph-name="cent.sc" horiz-adv-x="538" 
d="M193 0v168q-142 39 -142 246v420q0 104 34 163t108 82v146h161v-146q138 -35 138 -245v-89h-162v70q0 69 -12 95t-44 26q-35 0 -48 -29t-13 -102v-369q0 -70 12 -95.5t47 -25.5q33 0 45.5 25.5t12.5 93.5v92h162v-112q0 -210 -138 -244v-170h-161z" />
    <glyph glyph-name="chi.sc" horiz-adv-x="618" 
d="M449 0l-136 461l-149 -461h-166l219 629l-209 594h166l139 -420l129 420h168l-190 -594l194 -629h-165z" />
    <glyph glyph-name="circumflex.sc" horiz-adv-x="454" 
d="M297 1016l-72 125l-63 -125h-131l121 229h145l127 -229h-127z" />
    <glyph glyph-name="commaaccent.sc" horiz-adv-x="352" 
d="M53 -332l86 252h174l-137 -252h-123z" />
    <glyph glyph-name="copyright.sc" horiz-adv-x="1126" 
d="M561 -12q-265 0 -392.5 159.5t-127.5 458.5q0 301 126.5 463t393.5 162q524 0 524 -623q0 -298 -128 -459t-396 -161zM565 125q196 0 287.5 117t91.5 364q0 251 -93.5 370.5t-289.5 119.5q-198 0 -288.5 -119.5t-90.5 -362.5q0 -254 94.5 -371.5t288.5 -117.5zM766 475
q0 -132 -49 -193t-150 -61q-205 0 -205 254v273q0 256 205 256q101 0 150 -62t49 -194v-50h-145v60q0 48 -13 69t-43 21q-36 0 -46.5 -28.5t-10.5 -106.5v-226q0 -61 13 -86.5t44 -25.5q30 0 43 21.5t13 74.5v61h145v-57z" />
    <glyph glyph-name="currency.sc" horiz-adv-x="763" 
d="M598 174l-74 102q-64 -22 -145 -22q-83 0 -139 20l-70 -100l-104 76l63 92q-70 76 -70 238v61q0 162 70 238l-63 90l104 75l70 -98q65 19 139 19q82 0 147 -21l72 100l104 -75l-69 -95q69 -81 69 -233v-61q0 -159 -69 -234l69 -96zM549 639q0 180 -168 180t-168 -180v-57
q0 -181 168 -181t168 181v57z" />
    <glyph glyph-name="d.sc" horiz-adv-x="634" 
d="M70 0v1223h280q111 0 166 -60t55 -194v-713q0 -134 -55 -195t-166 -61h-280zM406 944q0 65 -22 93t-67 28h-81v-909h81q45 0 67 28.5t22 94.5v665z" />
    <glyph glyph-name="dcaron.sc" horiz-adv-x="634" 
d="M233 1333l-127 230h127l72 -123l64 123h131l-121 -230h-146zM70 0v1223h280q111 0 166 -60t55 -194v-713q0 -134 -55 -195t-166 -61h-280zM406 944q0 65 -22 93t-67 28h-81v-909h81q45 0 67 28.5t22 94.5v665z" />
    <glyph glyph-name="dcroat.sc" horiz-adv-x="641" 
d="M76 0v541h-70v153h70v529h280q111 0 166.5 -60t55.5 -194v-713q0 -134 -55.5 -195t-166.5 -61h-280zM412 944q0 66 -21 93.5t-67 27.5h-82v-371h86v-153h-86v-383h82q45 0 66.5 28t21.5 93v665z" />
    <glyph glyph-name="degree.sc" horiz-adv-x="434" 
d="M283 1010q0 29 -18.5 47t-47.5 18q-27 0 -46 -18t-19 -47t19 -47.5t46 -18.5q29 0 47.5 18.5t18.5 47.5zM217 838q-72 0 -122 50t-50 122t50 121t122 49t122 -49t50 -121t-50 -122t-122 -50z" />
    <glyph glyph-name="delta.sc" horiz-adv-x="598" 
d="M12 0l164 1223h246l166 -1223h-576zM299 1036l-102 -880h204z" />
    <glyph glyph-name="dieresis.sc" horiz-adv-x="528" 
d="M127 999q-39 0 -67.5 29t-28.5 70t28.5 68.5t67.5 27.5q41 0 68.5 -27.5t27.5 -68.5q0 -42 -27.5 -70.5t-68.5 -28.5zM403 999q-41 0 -68.5 28.5t-27.5 70.5q0 41 27.5 68.5t68.5 27.5t68 -27.5t27 -68.5t-28 -70t-67 -29z" />
    <glyph glyph-name="dieresistonos.sc" horiz-adv-x="684" 
d="M127 999q-39 0 -67.5 29t-28.5 70t28.5 68.5t67.5 27.5q41 0 68.5 -28.5t27.5 -67.5q0 -42 -27.5 -70.5t-68.5 -28.5zM557 999q-41 0 -68.5 28t-27.5 69t27.5 69.5t68.5 28.5t68.5 -28.5t27.5 -69.5t-27.5 -69t-68.5 -28zM227 979l78 231h164l-123 -231h-119z" />
    <glyph glyph-name="divide.sc" horiz-adv-x="735" 
d="M61 504v153h613v-153h-613zM270 856q0 39 28 67.5t69 28.5t69.5 -28.5t28.5 -67.5q0 -41 -28.5 -69.5t-69.5 -28.5t-69 28.5t-28 69.5zM270 305q0 39 28 67.5t69 28.5t69.5 -28.5t28.5 -67.5q0 -41 -28.5 -69.5t-69.5 -28.5t-69 28.5t-28 69.5z" />
    <glyph glyph-name="dollar.alt" horiz-adv-x="604" 
d="M223 0v209q-91 17 -130.5 87.5t-39.5 211.5v94h164v-94q0 -81 17 -116.5t63 -35.5q88 0 88 123q0 59 -18.5 105.5t-47.5 78t-64.5 61t-71 63t-64.5 74t-47.5 104.5t-18.5 145q0 128 42 194.5t128 84.5v182h164v-185q83 -19 122.5 -86t39.5 -200v-107h-164v94
q0 88 -17 122t-65 34q-49 0 -67.5 -29.5t-18.5 -95.5q0 -67 18.5 -117.5t47.5 -82t64.5 -59t71 -58t64.5 -68.5t47.5 -100.5t18.5 -145.5q0 -122 -39.5 -188t-122.5 -86v-213h-164z" />
    </font>
</defs>
</svg>
