<?xml version="1.0" standalone="no"?>
<!DOCTYPE svg PUBLIC "-//W3C//DTD SVG 1.1//EN" "http://www.w3.org/Graphics/SVG/1.1/DTD/svg11.dtd" >
<svg xmlns="http://www.w3.org/2000/svg" xmlns:xlink="http://www.w3.org/1999/xlink" version="1.1">
<metadata>
Created by FontForge 20190801 at Sun Sep 20 14:34:08 2020
 By www-data
Copyright (c) 2005-2013 Canada Type. All rights reserved.
</metadata>
<defs>
<font id="TrumpGothicProBold" horiz-adv-x="694" >
  <font-face 
    font-family="TrumpGothicProBold"
    font-weight="700"
    font-stretch="normal"
    units-per-em="2048"
    panose-1="2 0 8 8 2 0 0 2 0 4"
    ascent="1638"
    descent="-410"
    x-height="1161"
    cap-height="1569"
    bbox="-221 -467 2114 2025"
    underline-thickness="102"
    underline-position="-307"
    unicode-range="U+000D-FB04"
  />
<missing-glyph horiz-adv-x="880" 
d="M102 0v1569h676v-1569h-676zM414 813l-189 500v-1043zM449 676l-179 -570h342zM604 1462h-317l162 -504zM655 1311l-155 -500l155 -545v1045z" />
    <glyph glyph-name="copyright" unicode="&#x28;C&#x29;" horiz-adv-x="1427" 
d="M711 -16q-666 0 -666 794q0 387 163.5 594t504.5 207t505 -207t164 -592q0 -189 -39.5 -334t-120 -249.5t-209.5 -158.5t-302 -54zM717 158q251 0 369 152t118 468q0 320 -120 474.5t-373 154.5t-370.5 -155t-117.5 -466q0 -322 122.5 -475t371.5 -153zM975 608
q0 -170 -63.5 -248.5t-192.5 -78.5q-260 0 -260 327v353q0 327 260 327q129 0 192.5 -78.5t63.5 -248.5v-64h-184v41q0 87 -16 121.5t-58 34.5t-58 -34.5t-16 -121.5v-305q0 -87 16 -121.5t58 -34.5t58 34.5t16 121.5v47h184v-72z" />
    <glyph glyph-name="registered" unicode="&#x28;R&#x29;" horiz-adv-x="845" 
d="M422 721q-189 0 -286 112t-97 318q0 210 92 319t291 109q201 0 293 -108.5t92 -317.5q0 -206 -98 -319t-287 -113zM424 813q285 0 285 338q0 165 -68.5 249.5t-218.5 84.5q-285 0 -285 -330q0 -342 287 -342zM479 907l-51 168h-29v-164h-120v488h215q47 0 77.5 -29.5
t30.5 -91.5v-70q0 -45 -17.5 -74.5t-43.5 -37.5l61 -189h-123zM479 1243q0 35 -9 48.5t-32 13.5h-39v-134h39q41 0 41 58v14z" />
    <glyph glyph-name="uni2117" unicode="&#x28;P&#x29;" horiz-adv-x="1427" 
d="M711 -16q-666 0 -666 794q0 387 163.5 594t504.5 207t505 -207t164 -592q0 -189 -39.5 -334t-120 -249.5t-209.5 -158.5t-302 -54zM717 158q251 0 369 152t118 468q0 320 -120 474.5t-373 154.5t-370.5 -155t-117.5 -466q0 -322 122.5 -475t371.5 -153zM489 307v957h320
q89 0 145 -55.5t56 -170.5v-192q0 -117 -52.5 -171t-140.5 -54h-143v-314h-185zM823 977q0 59 -18 83.5t-60 24.5h-71v-288h71q42 0 60 23.5t18 82.5v74z" />
    <glyph glyph-name="trademark" unicode="&#x28;TM&#x29;" horiz-adv-x="1417" 
d="M1184 848v469l-154 -469h-90l-141 465v-465h-156v721h211l137 -445l137 445h213v-721h-157zM225 848v565h-190v156h538v-156h-190v-565h-158z" />
    <glyph glyph-name="ff" unicode="ff" horiz-adv-x="899" 
d="M549 0v971h-217v-971h-205v971h-113v190h113v144q0 157 59 221.5t172 64.5q71 0 109 -14v-170q-28 4 -41 4q-57 0 -75.5 -38t-18.5 -122v-90h217v144q0 157 59 221.5t172 64.5q71 0 109 -14v-170q-28 4 -41 4q-57 0 -75.5 -38t-18.5 -122v-90h133v-190h-133v-971h-205z
" />
    <glyph glyph-name="fi" unicode="fi" horiz-adv-x="823" 
d="M127 0v971h-113v190h113v144q0 157 59 221.5t172 64.5q71 0 109 -14v-170q-28 4 -41 4q-57 0 -75.5 -38t-18.5 -122v-90h133v-190h-133v-971h-205zM549 0v1161h205v-1161h-205zM651 1280q-54 0 -91.5 37.5t-37.5 91.5t37.5 91.5t91.5 37.5t91.5 -37.5t37.5 -91.5
t-37.5 -91.5t-91.5 -37.5z" />
    <glyph glyph-name="fl" unicode="fl" horiz-adv-x="825" 
d="M127 0v971h-113v190h113v144q0 157 59 221.5t172 64.5q71 0 109 -14v-170q-28 4 -41 4q-57 0 -75.5 -38t-18.5 -122v-90h133v-190h-133v-971h-205zM549 0v1569h205v-1569h-205z" />
    <glyph glyph-name="ffi" unicode="ffi" horiz-adv-x="1245" 
d="M971 0v1161h205v-1161h-205zM1073 1280q-54 0 -91.5 37.5t-37.5 91.5t37.5 91.5t91.5 37.5t91.5 -37.5t37.5 -91.5t-37.5 -91.5t-91.5 -37.5zM549 0v971h-217v-971h-205v971h-113v190h113v144q0 157 59 221.5t172 64.5q71 0 109 -14v-170q-28 4 -41 4q-57 0 -75.5 -38
t-18.5 -122v-90h217v144q0 157 59 221.5t172 64.5q71 0 109 -14v-170q-28 4 -41 4q-57 0 -75.5 -38t-18.5 -122v-90h133v-190h-133v-971h-205z" />
    <glyph glyph-name="ffl" unicode="ffl" horiz-adv-x="1247" 
d="M971 0v1569h205v-1569h-205zM549 0v971h-217v-971h-205v971h-113v190h113v144q0 157 59 221.5t172 64.5q71 0 109 -14v-170q-28 4 -41 4q-57 0 -75.5 -38t-18.5 -122v-90h217v144q0 157 59 221.5t172 64.5q71 0 109 -14v-170q-28 4 -41 4q-57 0 -75.5 -38t-18.5 -122v-90
h133v-190h-133v-971h-205z" />
    <glyph glyph-name="f_j" unicode="fj" horiz-adv-x="823" 
d="M127 0v971h-113v190h113v144q0 157 59 221.5t172 64.5q71 0 109 -14v-170q-28 4 -41 4q-57 0 -75.5 -38t-18.5 -122v-90h133v-190h-133v-971h-205zM414 -252q14 -2 32 -2q62 0 82.5 36.5t20.5 121.5v1257h205v-1280q0 -166 -57 -236.5t-193 -70.5q-45 0 -90 10v164z
M651 1280q-54 0 -91.5 37.5t-37.5 91.5t37.5 91.5t91.5 37.5t91.5 -37.5t37.5 -91.5t-37.5 -91.5t-91.5 -37.5z" />
    <glyph glyph-name="f_t" unicode="ft" horiz-adv-x="913" 
d="M889 -6q-52 -10 -82 -10q-142 0 -200 69.5t-58 237.5v680h-217v-971h-205v971h-113v190h113v144q0 157 59 221.5t172 64.5q71 0 109 -14v-170q-28 4 -41 4q-57 0 -75.5 -38t-18.5 -122v-90h217v287h205v-287h133v-190h-133v-647q0 -84 18.5 -122t75.5 -38q13 0 41 4v-174
z" />
    <glyph glyph-name=".notdef" horiz-adv-x="880" 
d="M102 0v1569h676v-1569h-676zM414 813l-189 500v-1043zM449 676l-179 -570h342zM604 1462h-317l162 -504zM655 1311l-155 -500l155 -545v1045z" />
    <glyph glyph-name=".null" horiz-adv-x="0" 
 />
    <glyph glyph-name="nonmarkingreturn" horiz-adv-x="682" 
 />
    <glyph glyph-name="NULL" horiz-adv-x="0" 
 />
    <glyph glyph-name="NULL" horiz-adv-x="0" 
 />
    <glyph glyph-name="CR" unicode="&#xd;" horiz-adv-x="512" 
 />
    <glyph glyph-name="space" unicode=" " horiz-adv-x="258" 
 />
    <glyph glyph-name="exclam" unicode="!" horiz-adv-x="376" 
d="M117 391l-39 1178h223l-41 -1178h-143zM188 -16q-54 0 -91.5 37.5t-37.5 91.5t37.5 91.5t91.5 37.5t91.5 -37.5t37.5 -91.5t-37.5 -91.5t-91.5 -37.5z" />
    <glyph glyph-name="quotedbl" unicode="&#x22;" horiz-adv-x="555" 
d="M332 1139l-31 430h205l-31 -430h-143zM80 1139l-31 430h205l-31 -430h-143z" />
    <glyph glyph-name="numbersign" unicode="#" horiz-adv-x="1146" 
d="M489 61l101 394h-193l-100 -394h-199l101 394h-166l49 196h166l59 234h-192l49 196h194l101 394h198l-100 -394h193l100 394h199l-101 -394h166l-49 -196h-168l-59 -234h194l-49 -196h-195l-100 -394h-199zM698 885h-192l-60 -234h193z" />
    <glyph glyph-name="dollar" unicode="$" horiz-adv-x="763" 
d="M350 -131v106q-136 8 -214.5 89.5t-78.5 236.5v223h209v-196q0 -127 84 -152v479q-35 29 -44.5 37t-43.5 37t-46 41.5t-40 41.5t-40 47t-31 47t-27 53t-14.5 53.5t-6.5 58.5v197q0 156 80.5 236.5t212.5 88.5v107h68v-107q141 -11 214 -88t73 -237v-246h-209v219
q0 121 -78 150v-512q17 -14 55 -44t58 -46.5t52 -46t49.5 -53t36.5 -54.5t27.5 -64.5t8.5 -70.5v-199q0 -154 -76 -234.5t-211 -91.5v-106h-68zM350 1393q-84 -25 -84 -152v-131q0 -88 84 -172v455zM496 457q0 59 -78 137v-416q35 11 56.5 48.5t21.5 101.5v129z" />
    <glyph glyph-name="percent" unicode="%" horiz-adv-x="1511" 
d="M455 0l422 1569h186l-422 -1569h-186zM555 885q0 -174 -58.5 -251t-197.5 -77q-143 0 -201.5 78t-58.5 250v368q0 172 58.5 250t201.5 78q139 0 197.5 -77t58.5 -251v-368zM371 1231q0 87 -16 121t-58 34t-58 -34t-16 -121v-324q0 -87 16 -121t58 -34t58 34t16 121v324z
M1473 309q0 -174 -58.5 -250.5t-197.5 -76.5q-143 0 -202 77.5t-59 249.5v369q0 172 59 250t202 78q139 0 197.5 -77t58.5 -251v-369zM1288 655q0 87 -16 121.5t-58 34.5t-57.5 -34t-15.5 -122v-323q0 -88 15.5 -122t57.5 -34t58 34.5t16 121.5v323z" />
    <glyph glyph-name="ampersand" unicode="&#x26;" horiz-adv-x="817" 
d="M709 723v-401q0 -349 -322 -349q-326 0 -326 359v209q0 113 36.5 180.5t135.5 97.5q-100 28 -136 88t-36 170v176q0 342 334 342q314 0 314 -325v-41h-209v14q0 80 -33.5 118t-81.5 38t-81.5 -39t-33.5 -119v-190q0 -40 19 -69t48.5 -42.5t56 -19t52.5 -5.5h54v123h209
v-123h84v-192h-84zM500 723h-54q-26 0 -52.5 -5.5t-56.5 -18.5t-48.5 -42t-18.5 -69v-260q0 -80 33.5 -118t81.5 -38t81.5 38t33.5 118v395z" />
    <glyph glyph-name="quotesingle" unicode="'" horiz-adv-x="303" 
d="M80 1139l-31 430h205l-31 -430h-143z" />
    <glyph glyph-name="parenleft" unicode="(" horiz-adv-x="419" 
d="M203 -352q-162 471 -162 960q0 490 162 961h207q-76 -195 -119 -445t-43 -516t43 -515.5t119 -444.5h-207z" />
    <glyph glyph-name="parenright" unicode=")" horiz-adv-x="419" 
d="M10 -352q76 195 119 444.5t43 515.5t-43 516t-119 445h207q162 -471 162 -961q0 -489 -162 -960h-207z" />
    <glyph glyph-name="asterisk" unicode="*" horiz-adv-x="624" 
d="M387 1012l-74 194l-73 -196l-140 82l142 168l-199 -33v155l193 -32l-140 166l140 81l77 -206l74 204l141 -79l-139 -168l193 30v-151l-195 33l141 -168z" />
    <glyph glyph-name="plus" unicode="+" horiz-adv-x="864" 
d="M334 352v295h-293v193h293v295h196v-295h293v-193h-293v-295h-196z" />
    <glyph glyph-name="comma" unicode="," horiz-adv-x="407" 
d="M-61 -276l178 518h231l-266 -518h-143z" />
    <glyph glyph-name="hyphen" unicode="-" horiz-adv-x="518" 
d="M66 500v196h387v-196h-387z" />
    <glyph glyph-name="period" unicode="." horiz-adv-x="352" 
d="M176 -16q-54 0 -91.5 37.5t-37.5 91.5t37.5 91.5t91.5 37.5t91.5 -37.5t37.5 -91.5t-37.5 -91.5t-91.5 -37.5z" />
    <glyph glyph-name="slash" unicode="/" horiz-adv-x="649" 
d="M25 0l401 1569h199l-402 -1569h-198z" />
    <glyph glyph-name="zero" unicode="0" horiz-adv-x="778" 
d="M66 1268q0 165 91.5 246t243.5 81q312 0 312 -327v-967q0 -86 -25.5 -150.5t-71 -102.5t-102 -56.5t-123.5 -18.5t-124.5 19t-103 57.5t-71.5 103t-26 148.5v967zM504 1241q0 80 -33.5 118t-81.5 38t-81.5 -38t-33.5 -118v-913q0 -80 33.5 -118t81.5 -38t81.5 38
t33.5 118v913z" />
    <glyph glyph-name="one" unicode="1" horiz-adv-x="555" 
d="M252 0v1341l-236 -75v202l260 101h181v-1569h-205z" />
    <glyph glyph-name="two" unicode="2" horiz-adv-x="737" 
d="M55 0v150q0 81 44.5 186.5t108.5 207.5t128 202.5t108.5 197.5t44.5 166v135q0 80 -32.5 116t-81.5 36t-82 -36t-33 -116v-192h-209v215q0 163 90 245t240 82q145 0 231 -77.5t86 -237.5v-193q0 -77 -43 -178.5t-105.5 -198.5t-125.5 -190t-109.5 -179.5t-50.5 -141.5
h393v-199h-602z" />
    <glyph glyph-name="three" unicode="3" horiz-adv-x="765" 
d="M496 571q0 68 -32.5 104t-90.5 36q-22 0 -88 -4v208q22 -4 100 -4q48 0 79.5 38t31.5 118v172q0 81 -32 119.5t-79 38.5q-49 0 -84 -37.5t-35 -116.5v-182h-209v209q0 162 89 243.5t241 81.5q147 0 232.5 -78t85.5 -241v-197q0 -104 -33.5 -162.5t-118.5 -101.5
q80 -35 116 -100.5t36 -171.5v-238q0 -166 -86 -249t-234 -83q-149 0 -238.5 83.5t-89.5 244.5v201h209v-172q0 -81 32.5 -119.5t84.5 -38.5q49 0 81 38t32 120v241z" />
    <glyph glyph-name="four" unicode="4" horiz-adv-x="765" 
d="M416 0v375h-393v198l268 996h330v-996h122v-198h-122v-375h-205zM416 1356l-185 -783h185v783z" />
    <glyph glyph-name="five" unicode="5" horiz-adv-x="763" 
d="M506 645q0 103 -31 139.5t-78 36.5q-92 0 -114 -104h-217v852h596v-199h-388v-467q37 58 85.5 86.5t123.5 28.5q232 0 232 -266v-426q0 -174 -75 -263.5t-247 -89.5q-170 0 -248.5 88t-78.5 265v92h210v-86q0 -84 33 -122t82 -38q48 0 81.5 40t33.5 120v313z" />
    <glyph glyph-name="six" unicode="6" horiz-adv-x="774" 
d="M715 326q0 -174 -75 -263.5t-247 -89.5q-170 0 -248.5 88t-78.5 265v929q0 170 78.5 255t246.5 85q165 0 243.5 -83.5t78.5 -256.5v-104h-209v90q0 80 -33.5 118t-81.5 38t-81.5 -38t-33.5 -118v-358q37 58 85.5 86t123.5 28q232 0 232 -266v-405zM506 625
q0 103 -31 139.5t-78 36.5q-121 0 -121 -176v-293q0 -84 33 -122t82 -38q48 0 81.5 40t33.5 120v293z" />
    <glyph glyph-name="seven" unicode="7" horiz-adv-x="673" 
d="M35 0l399 1370h-397v199h633v-109l-414 -1460h-221z" />
    <glyph glyph-name="eight" unicode="8" horiz-adv-x="770" 
d="M709 301q0 -163 -89 -245.5t-233 -82.5q-146 0 -236 83.5t-90 244.5v313q0 95 35.5 155t100.5 103q-65 44 -100.5 103t-35.5 155v160q0 138 89 221.5t243 83.5q143 0 229.5 -76.5t86.5 -228.5v-160q0 -66 -19 -117.5t-47 -82.5t-70 -58q136 -91 136 -278v-293zM500 1241
q0 80 -33.5 118t-81.5 38t-81.5 -38t-33.5 -118v-123q0 -80 33 -115.5t82 -35.5t82 35.5t33 115.5v123zM500 616q0 80 -33 116t-82 36t-82 -36t-33 -116v-288q0 -80 33.5 -118t81.5 -38t81.5 38t33.5 118v288z" />
    <glyph glyph-name="nine" unicode="9" horiz-adv-x="774" 
d="M500 686q-37 -58 -85.5 -86.5t-123.5 -28.5q-232 0 -232 267v405q0 174 75 263t247 89q170 0 249 -87.5t79 -264.5v-930q0 -170 -79 -255t-247 -85q-165 0 -243.5 83.5t-78.5 256.5v105h209v-90q0 -80 33.5 -118t81.5 -38t81.5 38t33.5 118v358zM498 1237q0 84 -33 122
t-82 38q-48 0 -81.5 -40t-33.5 -120v-293q0 -103 31 -139.5t78 -36.5q121 0 121 176v293z" />
    <glyph glyph-name="colon" unicode=":" horiz-adv-x="389" 
d="M195 -16q-54 0 -91.5 37.5t-37.5 91.5t37.5 91.5t91.5 37.5t91.5 -37.5t37.5 -91.5t-37.5 -91.5t-91.5 -37.5zM195 680q-54 0 -91.5 37.5t-37.5 91.5t37.5 91.5t91.5 37.5t91.5 -37.5t37.5 -91.5t-37.5 -91.5t-91.5 -37.5z" />
    <glyph glyph-name="semicolon" unicode=";" horiz-adv-x="428" 
d="M221 680q-54 0 -91.5 37.5t-37.5 91.5t37.5 91.5t91.5 37.5t91.5 -37.5t37.5 -91.5t-37.5 -91.5t-91.5 -37.5zM-51 -276l178 518h231l-266 -518h-143z" />
    <glyph glyph-name="less" unicode="&#x3c;" horiz-adv-x="864" 
d="M641 51l-586 692l592 699l137 -123l-501 -576l501 -575z" />
    <glyph glyph-name="equal" unicode="=" horiz-adv-x="864" 
d="M41 819v193h782v-193h-782zM41 471v193h782v-193h-782z" />
    <glyph glyph-name="greater" unicode="&#x3e;" horiz-adv-x="864" 
d="M80 168l502 575l-502 576l137 123l592 -699l-586 -692z" />
    <glyph glyph-name="question" unicode="?" horiz-adv-x="720" 
d="M258 391l-20 500q9 -4 38 -4q26 0 55.5 5.5t63.5 18.5t56 42t22 69v221q0 80 -33.5 118t-81.5 38t-81 -38t-33 -118v-182h-209v188q0 168 84.5 257t249.5 89q156 0 234.5 -82t78.5 -253v-242q0 -138 -51.5 -216.5t-184.5 -101.5l-20 -309h-168zM346 -16q-54 0 -91.5 37.5
t-37.5 91.5t37.5 91.5t91.5 37.5t91.5 -37.5t37.5 -91.5t-37.5 -91.5t-91.5 -37.5z" />
    <glyph glyph-name="at" unicode="@" horiz-adv-x="1443" 
d="M1014 -367q-89 -54 -161 -77t-175 -23q-309 0 -477 205.5t-168 585.5q0 156 28.5 305t90.5 285.5t150.5 239t217.5 163.5t283 61q124 0 225 -39.5t168 -106.5t112 -158.5t65 -191.5t20 -210q0 -129 -28 -253.5t-80 -229.5t-136.5 -169.5t-187.5 -64.5q-84 0 -143 41.5
t-66 116.5q-37 -58 -103 -93.5t-137 -35.5q-62 0 -100.5 30.5t-38.5 98.5q0 78 116 606q51 231 193 231q56 0 107 -30.5t79 -69.5l17 82h184q-28 -133 -53 -249.5t-40 -184.5t-27.5 -125.5t-18.5 -85t-10.5 -49t-5.5 -31t-1 -19.5q0 -88 68 -88q51 0 92.5 52t66.5 135.5
t38.5 181.5t13.5 197q0 249 -92.5 382.5t-298.5 133.5q-100 0 -184.5 -33t-146.5 -93t-108.5 -140t-75.5 -177.5t-43 -203t-14 -218.5q0 -166 29.5 -281t88.5 -181.5t138.5 -95.5t188.5 -29q97 0 164.5 22t146.5 70zM614 332q-12 -59 -12 -92q0 -64 49 -64q77 0 111 156
q67 316 67 352q0 66 -55 66q-42 0 -65.5 -34.5t-40.5 -121.5z" />
    <glyph glyph-name="A" unicode="A" horiz-adv-x="743" 
d="M528 0l-41 348h-231l-41 -348h-209l211 1569h307l213 -1569h-209zM371 1329l-92 -782h184z" />
    <glyph glyph-name="B" unicode="B" horiz-adv-x="790" 
d="M82 0v1569h352q126 0 205.5 -83t79.5 -245v-199q0 -180 -150 -237q92 -34 131 -96.5t39 -155.5v-225q0 -163 -79 -245.5t-205 -82.5h-373zM510 1214q0 85 -27 120.5t-88 35.5h-104v-469h104q61 0 88 35.5t27 120.5v157zM530 547q0 155 -135 155h-104v-503h125
q61 0 87.5 35t26.5 120v193z" />
    <glyph glyph-name="C" unicode="C" horiz-adv-x="772" 
d="M719 301q0 -86 -25.5 -150.5t-71 -102.5t-102 -56.5t-123.5 -18.5t-124.5 19t-103 57.5t-71.5 103t-26 148.5v967q0 165 91 246t240 81q51 0 96 -9.5t86 -32.5t70 -58t46.5 -89.5t17.5 -123.5v-260h-209v219q0 80 -33.5 118t-81.5 38t-81 -38t-33 -118v-913
q0 -80 33 -118t81 -38t81.5 38t33.5 118v196h209v-223z" />
    <glyph glyph-name="D" unicode="D" horiz-adv-x="790" 
d="M82 0v1569h352q128 0 206.5 -80t78.5 -248v-913q0 -168 -78.5 -248t-206.5 -80h-352zM510 1214q0 85 -27 120.5t-88 35.5h-104v-1171h104q61 0 88 35t27 120v860z" />
    <glyph glyph-name="E" unicode="E" horiz-adv-x="698" 
d="M82 0v1569h561v-199h-352v-479h338v-199h-338v-493h352v-199h-561z" />
    <glyph glyph-name="F" unicode="F" horiz-adv-x="688" 
d="M82 0v1569h561v-199h-352v-479h338v-199h-338v-692h-209z" />
    <glyph glyph-name="G" unicode="G" horiz-adv-x="798" 
d="M530 604h-139v199h348v-502q0 -167 -92.5 -247.5t-238.5 -80.5q-149 0 -242.5 81.5t-93.5 246.5v967q0 165 92 246t244 81q153 0 242 -81t89 -246v-244h-209v217q0 81 -34 118.5t-90 37.5t-90.5 -37.5t-34.5 -118.5v-913q0 -81 34.5 -118.5t90.5 -37.5t90 37.5t34 118.5
v276z" />
    <glyph glyph-name="H" unicode="H" horiz-adv-x="811" 
d="M520 0v692h-229v-692h-209v1569h209v-678h229v678h209v-1569h-209z" />
    <glyph glyph-name="I" unicode="I" horiz-adv-x="372" 
d="M82 0v1569h209v-1569h-209z" />
    <glyph glyph-name="J" unicode="J" horiz-adv-x="372" 
d="M-39 -393v198h6q48 0 81.5 38t33.5 118v1608h209v-1635q0 -86 -26 -150.5t-71.5 -102t-102 -56t-124.5 -18.5h-6z" />
    <glyph glyph-name="K" unicode="K" horiz-adv-x="772" 
d="M582 0l-289 784l250 785h209l-238 -778l277 -791h-209zM82 0v1569h209v-1569h-209z" />
    <glyph glyph-name="L" unicode="L" horiz-adv-x="555" 
d="M82 0v1569h209v-1370h250v-199h-459z" />
    <glyph glyph-name="M" unicode="M" horiz-adv-x="1187" 
d="M897 0l4 1174l-213 -1174h-188l-213 1171l4 -1171h-209v1569h338l174 -1094l174 1094h338v-1569h-209z" />
    <glyph glyph-name="N" unicode="N" horiz-adv-x="917" 
d="M563 0l-276 1047l4 -1047h-209v1569h262l287 -1065l-4 1065h209v-1569h-273z" />
    <glyph glyph-name="O" unicode="O" horiz-adv-x="790" 
d="M72 1268q0 165 92 246t244 81q311 0 311 -327v-967q0 -86 -25.5 -150.5t-71 -102.5t-102 -56.5t-123.5 -18.5t-124.5 19t-103 57.5t-71.5 103t-26 148.5v967zM510 1241q0 80 -33.5 118t-81.5 38t-81 -38t-33 -118v-913q0 -80 33 -118t81 -38t81.5 38t33.5 118v913z" />
    <glyph glyph-name="P" unicode="P" horiz-adv-x="759" 
d="M82 0v1569h346q127 0 209 -80.5t82 -247.5v-268q0 -168 -76 -248t-203 -80h-149v-645h-209zM510 1214q0 85 -27 120.5t-88 35.5h-104v-526h104q61 0 88 35t27 120v215z" />
    <glyph glyph-name="Q" unicode="Q" horiz-adv-x="790" 
d="M504 -291l-119 264q-62 0 -116 18.5t-99 56.5t-71.5 103t-26.5 150v967q0 165 92 246t242 81q147 0 230 -78.5t83 -248.5v-967q0 -110 -36.5 -176.5t-123.5 -108.5l111 -235zM510 1241q0 80 -33.5 118t-81.5 38t-81 -38t-33 -118v-913q0 -80 33 -118t81 -38t81.5 38
t33.5 118v913z" />
    <glyph glyph-name="R" unicode="R" horiz-adv-x="770" 
d="M551 0l-180 645h-80v-645h-209v1569h348q128 0 208.5 -80.5t80.5 -247.5v-252q0 -122 -34 -192.5t-118 -106.5l193 -690h-209zM510 1214q0 85 -27 120.5t-88 35.5h-104v-526h104q61 0 88 35t27 120v215z" />
    <glyph glyph-name="S" unicode="S" horiz-adv-x="759" 
d="M702 301q0 -164 -87 -246t-236 -82q-148 0 -236 83t-88 245v223h209v-196q0 -80 33.5 -118t81.5 -38t81.5 38t33.5 118v129q0 35 -24 73t-63 73.5t-85.5 74t-93.5 82t-86 89.5t-63 104t-24 118v197q0 111 45.5 186.5t116.5 108t162 32.5q158 0 240.5 -78t82.5 -249v-246
h-208v219q0 80 -33.5 118t-81.5 38t-81.5 -38t-33.5 -118v-131q0 -48 24 -93t63 -81.5t85.5 -73t93 -75t85.5 -79.5t63 -95t24 -113v-199z" />
    <glyph glyph-name="T" unicode="T" horiz-adv-x="630" 
d="M211 0v1370h-195v199h598v-199h-194v-1370h-209z" />
    <glyph glyph-name="U" unicode="U" horiz-adv-x="802" 
d="M516 1569h209v-1268q0 -86 -25.5 -150.5t-71 -102.5t-102 -56.5t-123.5 -18.5t-124.5 19t-103 57.5t-71.5 103t-26 148.5v1268h209v-1241q0 -80 33 -118t81 -38t81.5 38t33.5 118v1241z" />
    <glyph glyph-name="V" unicode="V" horiz-adv-x="720" 
d="M514 0h-307l-193 1569h209l137 -1305l136 1305h209z" />
    <glyph glyph-name="W" unicode="W" horiz-adv-x="1251" 
d="M1061 0h-297l-139 1266l-138 -1266h-297l-172 1569h209l117 -1213l135 1213h293l135 -1213l117 1213h209z" />
    <glyph glyph-name="X" unicode="X" horiz-adv-x="770" 
d="M563 0l-172 594l-192 -594h-209l280 807l-268 762h211l178 -541l166 541h211l-242 -764l246 -805h-209z" />
    <glyph glyph-name="Y" unicode="Y" horiz-adv-x="731" 
d="M260 0v545l-260 1024h211l154 -711l157 711h211l-264 -1022v-547h-209z" />
    <glyph glyph-name="Z" unicode="Z" horiz-adv-x="628" 
d="M31 0v199l327 1171h-309v199h547v-109l-350 -1261h350v-199h-565z" />
    <glyph glyph-name="bracketleft" unicode="[" horiz-adv-x="501" 
d="M92 -348v1917h381v-168h-180v-1575h180v-174h-381z" />
    <glyph glyph-name="backslash" unicode="\" horiz-adv-x="649" 
d="M426 0l-401 1569h198l402 -1569h-199z" />
    <glyph glyph-name="bracketright" unicode="]" horiz-adv-x="501" 
d="M29 -348v174h180v1575h-180v168h381v-1917h-381z" />
    <glyph glyph-name="asciicircum" unicode="^" horiz-adv-x="864" 
d="M594 879l-164 444l-164 -444h-219l277 690h217l274 -690h-221z" />
    <glyph glyph-name="underscore" unicode="_" horiz-adv-x="710" 
d="M66 -88v176h579v-176h-579z" />
    <glyph glyph-name="grave" unicode="`" horiz-adv-x="309" 
d="M195 1305l-195 268h227l117 -268h-149z" />
    <glyph glyph-name="a" unicode="a" horiz-adv-x="677" 
d="M434 0l-18 96q-13 -23 -25 -39t-34 -34.5t-55 -28.5t-75 -10q-33 0 -56 6.5t-47 28.5t-38.5 60t-23.5 104t-9 159v33q0 168 43.5 237.5t134.5 69.5q35 0 64 -8t50.5 -25t33 -29t27.5 -32v239q0 87 -16 121.5t-58 34.5t-58 -34.5t-16 -121.5v-36h-205v71q0 154 67 235
t216 81q78 0 133 -23t85 -68t43 -101t13 -130v-856h-176zM406 356q0 70 -16.5 100.5t-57.5 30.5q-42 0 -58 -34t-16 -121v-8q0 -79 16 -111.5t58 -32.5q35 0 54.5 26.5t19.5 104.5v45z" />
    <glyph glyph-name="b" unicode="b" horiz-adv-x="690" 
d="M70 0v1569h204v-490q19 28 34.5 45.5t54 35.5t88.5 18q104 0 140 -72.5t36 -247.5v-555q0 -174 -36 -246.5t-138 -72.5q-53 0 -94.5 20.5t-58.5 40t-36 49.5l-18 -94h-176zM422 827q0 87 -16 121.5t-58 34.5t-58 -34.5t-16 -121.5v-493q0 -87 16 -121.5t58 -34.5t58 34.5
t16 121.5v493z" />
    <glyph glyph-name="c" unicode="c" horiz-adv-x="665" 
d="M618 311q0 -171 -67 -249t-209 -78q-146 0 -213.5 79.5t-67.5 247.5v539q0 168 67.5 248t213.5 80q142 0 209 -78.5t67 -249.5v-115h-204v92q0 87 -16 121.5t-58 34.5t-58 -34.5t-16 -121.5v-491q0 -87 16 -121.5t58 -34.5t58 34.5t16 121.5v119h204v-144z" />
    <glyph glyph-name="d" unicode="d" horiz-adv-x="690" 
d="M444 0l-18 94q-14 -22 -26 -36.5t-34 -34t-54.5 -29.5t-73.5 -10q-102 0 -138.5 73t-36.5 246v555q0 173 37.5 246.5t139.5 73.5q39 0 69 -9t51 -26.5t31.5 -30t24.5 -33.5v490h205v-1569h-177zM416 827q0 87 -16 121.5t-58 34.5t-58 -34.5t-16 -121.5v-493
q0 -87 16 -121.5t58 -34.5t58 34.5t16 121.5v493z" />
    <glyph glyph-name="e" unicode="e" horiz-adv-x="669" 
d="M618 311q0 -171 -67 -249t-209 -78q-146 0 -213.5 79.5t-67.5 247.5v539q0 168 67.5 248t213.5 80q142 0 209 -78.5t67 -249.5v-356h-352v-158q0 -87 16 -121.5t58 -34.5t58 34.5t16 121.5v47h204v-72zM414 827q0 87 -16 121.5t-58 34.5t-58 -34.5t-16 -121.5v-141h148
v141z" />
    <glyph glyph-name="f" unicode="f" horiz-adv-x="477" 
d="M127 0v971h-113v190h113v144q0 157 59 221.5t172 64.5q71 0 109 -14v-170q-28 4 -41 4q-57 0 -75.5 -38t-18.5 -122v-90h133v-190h-133v-971h-205z" />
    <glyph glyph-name="g" unicode="g" horiz-adv-x="684" 
d="M618 -106q0 -162 -74 -235t-216 -73q-150 0 -218.5 78.5t-68.5 249.5v102q0 158 63 240q-2 6 -10 19t-12 26t-4 31q0 33 17 62t63 69q-97 83 -97 256v131q0 170 68.5 249t216.5 79q93 0 146 -35h188v-117l-96 4q34 -52 34 -160v-137q0 -171 -68 -246t-218 -75
q-45 0 -56 4q-24 -21 -24 -37t16 -25t35.5 -10.5t54.5 -1.5q142 -1 201 -86t59 -264v-98zM414 827q0 87 -16 121.5t-58 34.5t-58 -34.5t-16 -121.5v-65q0 -87 16 -121.5t58 -34.5t58 34.5t16 121.5v65zM414 -29q0 107 -13.5 141.5t-70.5 34.5q-46 0 -65 -28t-19 -107v-75
q0 -89 20 -122.5t68 -33.5q44 0 62 28t18 111v51z" />
    <glyph glyph-name="h" unicode="h" 
d="M422 0v827q0 87 -16 121.5t-58 34.5t-58 -34.5t-16 -121.5v-827h-204v1569h204v-490q19 28 34.5 45.5t54 35.5t88.5 18q104 0 140 -72.5t36 -247.5v-858h-205z" />
    <glyph glyph-name="i" unicode="i" horiz-adv-x="344" 
d="M70 0v1161h204v-1161h-204zM172 1280q-54 0 -91.5 37.5t-37.5 91.5t37.5 91.5t91.5 37.5t91.5 -37.5t37.5 -91.5t-37.5 -91.5t-91.5 -37.5z" />
    <glyph glyph-name="j" unicode="j" horiz-adv-x="344" 
d="M-66 -252q14 -2 33 -2q62 0 82.5 36.5t20.5 121.5v1257h204v-1280q0 -166 -56.5 -236.5t-192.5 -70.5q-46 0 -91 10v164zM172 1280q-54 0 -91.5 37.5t-37.5 91.5t37.5 91.5t91.5 37.5t91.5 -37.5t37.5 -91.5t-37.5 -91.5t-91.5 -37.5z" />
    <glyph glyph-name="k" unicode="k" 
d="M485 0l-209 594l209 567h209l-200 -561l198 -600h-207zM70 0v1569h204v-1569h-204z" />
    <glyph glyph-name="l" unicode="l" horiz-adv-x="348" 
d="M72 0v1569h204v-1569h-204z" />
    <glyph glyph-name="m" unicode="m" horiz-adv-x="1046" 
d="M774 0v827q0 87 -16 121.5t-58 34.5t-57.5 -34t-15.5 -122v-827h-205v827q0 87 -16 121.5t-58 34.5t-58 -34.5t-16 -121.5v-827h-204v1161h176l18 -94q14 22 26 36.5t34.5 34t55 30t73.5 10.5q68 0 104.5 -32.5t54.5 -103.5q32 66 77 101t118 35q100 0 136 -73.5
t36 -246.5v-858h-205z" />
    <glyph glyph-name="n" unicode="n" 
d="M422 0v827q0 87 -16 121.5t-58 34.5t-58 -34.5t-16 -121.5v-827h-204v1161h176l18 -94q14 22 26 36.5t34.5 34t55 30t73.5 10.5q102 0 138 -73t36 -247v-858h-205z" />
    <glyph glyph-name="o" unicode="o" horiz-adv-x="679" 
d="M618 311q0 -171 -67 -249t-209 -78q-146 0 -213.5 79.5t-67.5 247.5v539q0 168 67.5 248t213.5 80q142 0 209 -78.5t67 -249.5v-539zM414 827q0 87 -16 121.5t-58 34.5t-58 -34.5t-16 -121.5v-491q0 -87 16 -121.5t58 -34.5t58 34.5t16 121.5v491z" />
    <glyph glyph-name="p" unicode="p" horiz-adv-x="690" 
d="M70 -408v1569h176l18 -94q14 22 26 36.5t34.5 34t55 30t73.5 10.5q102 0 138 -73t36 -247v-555q0 -175 -36 -247t-140 -72q-39 0 -69 8.5t-51 25.5t-32.5 30.5t-24.5 33.5v-490h-204zM422 827q0 87 -16 121.5t-58 34.5t-58 -34.5t-16 -121.5v-493q0 -87 16 -121.5
t58 -34.5t58 34.5t16 121.5v493z" />
    <glyph glyph-name="q" unicode="q" horiz-adv-x="690" 
d="M416 -408v490q-14 -21 -24.5 -33.5t-31.5 -30t-51 -26t-69 -8.5q-102 0 -139.5 73t-37.5 246v555q0 173 36.5 246.5t138.5 73.5q41 0 73.5 -10.5t54.5 -30t34 -34t26 -36.5l18 94h177v-1569h-205zM416 827q0 87 -16 121.5t-58 34.5t-58 -34.5t-16 -121.5v-493
q0 -87 16 -121.5t58 -34.5t58 34.5t16 121.5v493z" />
    <glyph glyph-name="r" unicode="r" horiz-adv-x="540" 
d="M70 0v1161h178l16 -94q16 38 62 73.5t112 35.5q63 0 99 -25l-19 -211q-72 29 -123 29q-121 0 -121 -185v-784h-204z" />
    <glyph glyph-name="s" unicode="s" horiz-adv-x="661" 
d="M246 334q0 -81 19 -118.5t67 -37.5q82 0 82 103q0 51 -20.5 92t-53.5 70.5t-72.5 57.5t-79.5 61.5t-73 74t-53.5 102.5t-20.5 140q0 299 295 299q148 0 215 -77.5t67 -250.5v-76h-204v53q0 88 -17 122t-65 34q-49 0 -66.5 -27.5t-17.5 -76.5q0 -56 20.5 -99.5t53 -72.5
t72 -56t79 -58t72 -69t53 -100t20.5 -141q0 -299 -290 -299q-148 0 -217.5 79t-69.5 244v76h205v-49z" />
    <glyph glyph-name="t" unicode="t" horiz-adv-x="473" 
d="M449 -6q-52 -10 -82 -10q-142 0 -200 69.5t-58 237.5v680h-93v190h93v287h204v-287h133v-190h-133v-647q0 -83 19 -121.5t76 -38.5q13 0 41 4v-174z" />
    <glyph glyph-name="u" unicode="u" 
d="M449 0l-19 94q-14 -22 -26 -36.5t-34 -34t-54.5 -29.5t-73.5 -10q-102 0 -138 72.5t-36 246.5v858h204v-827q0 -87 16 -121.5t58 -34.5t58 34.5t16 121.5v827h205v-1161h-176z" />
    <glyph glyph-name="v" unicode="v" horiz-adv-x="645" 
d="M174 0l-158 1161h213l93 -946l94 946h213l-156 -1161h-299z" />
    <glyph glyph-name="w" unicode="w" horiz-adv-x="1052" 
d="M610 0l-84 834l-84 -834h-268l-158 1161h213l93 -885l94 885h221l94 -885l92 885h213l-157 -1161h-269z" />
    <glyph glyph-name="x" unicode="x" horiz-adv-x="643" 
d="M438 0l-125 387l-108 -387h-201l193 594l-191 567h203l113 -352l108 352h207l-199 -569l203 -592h-203z" />
    <glyph glyph-name="y" unicode="y" horiz-adv-x="647" 
d="M184 -410l62 332l-244 1239h213l117 -823l90 823h213l-238 -1571h-213z" />
    <glyph glyph-name="z" unicode="z" horiz-adv-x="571" 
d="M25 0v180l288 791h-250v190h482v-145l-295 -821h270v-195h-495z" />
    <glyph glyph-name="braceleft" unicode="{" horiz-adv-x="577" 
d="M547 -348h-172q-197 0 -197 219v401q0 124 -35 188t-137 75v145q51 6 86 29t53 61t25.5 80t7.5 96v402q0 221 197 221h172v-168h-96q-18 0 -30.5 -5t-20 -18.5t-12 -25.5t-6.5 -37.5t-2.5 -41.5t-0.5 -50v-342q0 -117 -44.5 -183t-101.5 -88q54 -15 100 -83t46 -185v-338
q0 -39 0.5 -56.5t2.5 -43.5t6 -36t12 -22t20.5 -16t30.5 -4h96v-174z" />
    <glyph glyph-name="bar" unicode="|" horiz-adv-x="389" 
d="M90 -451v2048h209v-2048h-209z" />
    <glyph glyph-name="braceright" unicode="}" horiz-adv-x="577" 
d="M399 -129q0 -219 -196 -219h-172v174h96q18 0 30.5 4t20.5 16t12 22t6 36t2.5 43.5t0.5 56.5v338q0 117 45.5 185t99.5 83q-57 22 -101 88t-44 183v342q0 34 -0.5 50t-2.5 41.5t-6.5 37.5t-12 25.5t-20 18.5t-30.5 5h-96v168h172q196 0 196 -221v-402q0 -54 7.5 -96
t25.5 -80t53 -61t86 -29v-145q-102 -11 -137 -75t-35 -188v-401z" />
    <glyph glyph-name="asciitilde" unicode="~" horiz-adv-x="864" 
d="M846 1178q-57 -108 -124.5 -154.5t-131.5 -46.5q-46 0 -152.5 44t-163.5 44q-80 0 -122 -80l-123 102q95 185 250 185q66 0 167 -41t148 -41q38 0 65 18.5t50 61.5z" />
    <glyph glyph-name="nbspace" unicode="&#xa0;" horiz-adv-x="258" 
 />
    <glyph glyph-name="exclamdown" unicode="&#xa1;" horiz-adv-x="358" 
d="M68 -356l41 1177h143l39 -1177h-223zM309 1100q0 -54 -37.5 -91.5t-91.5 -37.5t-91.5 37.5t-37.5 91.5t37.5 91.5t91.5 37.5t91.5 -37.5t37.5 -91.5z" />
    <glyph glyph-name="cent" unicode="&#xa2;" horiz-adv-x="661" 
d="M236 0v217q-92 25 -135.5 102t-43.5 213v539q0 135 43.5 212t135.5 103v185h204v-185q174 -46 174 -315v-115h-204v93q0 87 -16 121t-58 34t-58 -34t-16 -121v-492q0 -87 16 -121.5t58 -34.5t58 34.5t16 121.5v119h204v-144q0 -137 -42 -213.5t-132 -101.5v-217h-204z
" />
    <glyph glyph-name="sterling" unicode="&#xa3;" horiz-adv-x="860" 
d="M51 0v209h113v229h-113v197h113v131h-113v197h113v290q0 98 27.5 167.5t76.5 106t104.5 52.5t123.5 16t121.5 -16t99 -52.5t70 -106t24.5 -167.5v-90h-209v78q0 80 -33.5 118t-81.5 38t-81 -38t-33 -118v-278h379v-197h-379v-131h379v-197h-379v-229h434v-209h-756z" />
    <glyph glyph-name="currency" unicode="&#xa4;" horiz-adv-x="927" 
d="M717 250l-86 121q-73 -21 -168 -21q-90 0 -164 19l-84 -119l-135 100l70 101q-89 89 -89 288v99q0 199 89 288l-70 101l135 100l84 -119q74 19 164 19q95 0 168 -21l86 121l135 -100l-76 -107q88 -94 88 -282v-99q0 -188 -88 -282l76 -107zM659 811q0 119 -48.5 168
t-147.5 49t-148 -49t-49 -168v-45q0 -119 49 -168t148 -49t147.5 49t48.5 168v45z" />
    <glyph glyph-name="yen" unicode="&#xa5;" horiz-adv-x="815" 
d="M512 213v-213h-209v213h-246v197h246v131h-246v196h217l-231 832h211l154 -686l157 686h211l-235 -832h217v-196h-246v-131h246v-197h-246z" />
    <glyph glyph-name="brokenbar" unicode="&#xa6;" horiz-adv-x="393" 
d="M92 762v835h209v-835h-209zM92 -451v834h209v-834h-209z" />
    <glyph glyph-name="section" unicode="&#xa7;" horiz-adv-x="813" 
d="M248 334q0 -81 19 -118.5t67 -37.5q82 0 82 103q0 51 -20.5 92t-53.5 70.5t-72.5 57.5t-79.5 61.5t-73 74t-53.5 102.5t-20.5 140q0 224 170 280q-20 56 -20 133q0 291 296 291q147 0 214 -77.5t67 -250.5v-61h-205v39q0 88 -17 122t-65 34q-84 0 -84 -99q0 -53 20.5 -94
t53 -69.5t72 -55t79.5 -58t72.5 -70t53 -100.5t20.5 -141q0 -223 -170 -282q21 -59 21 -139q0 -297 -291 -297q-148 0 -217.5 79t-69.5 244v76h205v-49zM334 983q-49 0 -66.5 -28t-17.5 -74q0 -45 11.5 -81t37.5 -65t46.5 -46.5t62 -46t61.5 -44.5q96 0 96 102
q0 40 -12 73.5t-39.5 63.5t-49 48.5t-66 50t-64.5 47.5z" />
    <glyph glyph-name="dieresis" unicode="&#xa8;" horiz-adv-x="671" 
d="M162 1284q-51 0 -87 35t-36 88q0 50 36.5 85.5t86.5 35.5q51 0 86 -35t35 -86q0 -53 -34.5 -88t-86.5 -35zM510 1284q-50 0 -85.5 35t-35.5 88q0 51 35.5 86t85.5 35q54 0 88.5 -35t34.5 -86q0 -54 -34.5 -88.5t-88.5 -34.5z" />
    <glyph glyph-name="ordfeminine" unicode="&#xaa;" horiz-adv-x="602" 
d="M397 743l-18 88q-60 -102 -152 -102q-74 0 -130 66.5t-56 212.5q0 239 166 239q103 0 164 -88v96q0 77 -17.5 109.5t-56.5 32.5q-33 0 -47 -19.5t-19 -54.5h-186q12 246 256 246q141 0 196.5 -72t55.5 -223v-531h-156zM66 403v177h471v-177h-471zM291 893q34 0 57 23
t23 75q0 92 -78 92t-78 -92q0 -48 21 -73t55 -25z" />
    <glyph glyph-name="guillemotleft" unicode="&#xab;" horiz-adv-x="790" 
d="M188 184l-159 363l159 366h209l-161 -366l161 -363h-209zM520 184l-160 363l160 366h209l-162 -366l162 -363h-209z" />
    <glyph glyph-name="logicalnot" unicode="&#xac;" horiz-adv-x="864" 
d="M625 352v295h-586v193h782v-488h-196z" />
    <glyph glyph-name="uni00AD" unicode="&#xad;" horiz-adv-x="518" 
d="M66 500v196h387v-196h-387z" />
    <glyph glyph-name="macron" unicode="&#xaf;" horiz-adv-x="614" 
d="M39 1305v165h536v-165h-536z" />
    <glyph glyph-name="degree" unicode="&#xb0;" horiz-adv-x="516" 
d="M336 1294q0 32 -23 55t-55 23t-55 -23t-23 -55t23 -54.5t55 -22.5t55 22.5t23 54.5zM258 1075q-92 0 -155.5 63.5t-63.5 155.5t63.5 155.5t155.5 63.5t155.5 -63.5t63.5 -155.5t-63.5 -155.5t-155.5 -63.5z" />
    <glyph glyph-name="plusminus" unicode="&#xb1;" horiz-adv-x="864" 
d="M334 377v295h-293v192h293v295h196v-295h293v-192h-293v-295h-196zM41 84v192h782v-192h-782z" />
    <glyph glyph-name="twosuperior" unicode="&#xb2;" horiz-adv-x="559" 
d="M63 786v109q0 49 28 94t67.5 79t79.5 67t68 72t28 79v82q0 72 -53 72q-54 0 -54 -72v-88h-164v100q0 89 51.5 146t166.5 57q117 0 169 -57.5t52 -145.5v-104q0 -54 -24 -100.5t-58 -78t-68 -59t-58 -54t-24 -50.5h215v-148h-422z" />
    <glyph glyph-name="threesuperior" unicode="&#xb3;" horiz-adv-x="548" 
d="M494 954q0 -82 -54.5 -132t-165.5 -50q-112 0 -165.5 49.5t-53.5 132.5v50h166v-19q0 -72 53 -72q52 0 52 72v62q0 38 -19 50.5t-59 12.5q-16 0 -41 -2v141q23 -2 39 -2q41 0 60.5 12t19.5 50v59q0 72 -52 72q-53 0 -53 -72v-22h-166v53q0 83 53.5 132.5t165.5 49.5
q111 0 165.5 -49.5t54.5 -132.5v-76q0 -53 -17 -86.5t-63 -52.5q80 -28 80 -160v-70z" />
    <glyph glyph-name="acute" unicode="&#xb4;" horiz-adv-x="309" 
d="M0 1305l117 268h227l-194 -268h-150z" />
    <glyph glyph-name="mu" unicode="&#xb5;" horiz-adv-x="737" 
d="M88 -408v1569h205v-827q0 -87 16 -121.5t58 -34.5t57.5 34t15.5 122v827h205v-1161h-176l-18 94q-62 -94 -123 -94q-17 0 -35 6v-414h-205z" />
    <glyph glyph-name="paragraph" unicode="&#xb6;" horiz-adv-x="999" 
d="M733 -178v1544h-141v-1546h-209v684h-66q-80 0 -128.5 12.5t-84.5 47.5t-50.5 99.5t-14.5 167.5v410q0 103 14.5 167.5t50.5 100t85 48t128 12.5h584v-1747h-168z" />
    <glyph glyph-name="periodcentered" unicode="&#xb7;" horiz-adv-x="376" 
d="M188 453q-54 0 -91.5 37.5t-37.5 91.5t37.5 91.5t91.5 37.5t91.5 -37.5t37.5 -91.5t-37.5 -91.5t-91.5 -37.5z" />
    <glyph glyph-name="cedilla" unicode="&#xb8;" horiz-adv-x="466" 
d="M82 -246q32 -18 70 -18q36 0 57.5 19.5t21.5 45.5t-20 44t-64 18q-14 0 -20 -2l35 139h145l-26 -94q63 0 99 -39.5t36 -93.5q0 -66 -53.5 -114t-155.5 -48q-88 0 -156 29z" />
    <glyph glyph-name="onesuperior" unicode="&#xb9;" horiz-adv-x="395" 
d="M158 786v611l-127 -60v158l149 76h146v-785h-168z" />
    <glyph glyph-name="ordmasculine" unicode="&#xba;" horiz-adv-x="595" 
d="M555 1057q0 -174 -58.5 -251t-197.5 -77q-143 0 -201.5 78t-58.5 250v184q0 172 58.5 250t201.5 78q139 0 197.5 -77t58.5 -251v-184zM66 403v177h471v-177h-471zM371 1219q0 87 -16 121t-58 34t-58 -34t-16 -121v-140q0 -87 16 -121t58 -34t58 34t16 121v140z" />
    <glyph glyph-name="guillemotright" unicode="&#xbb;" horiz-adv-x="790" 
d="M61 184l162 363l-162 366h209l160 -366l-160 -363h-209zM393 184l162 363l-162 366h209l160 -366l-160 -363h-209z" />
    <glyph glyph-name="onequarter" unicode="&#xbc;" horiz-adv-x="1112" 
d="M158 786v611l-127 -60v158l149 76h146v-785h-168zM854 0v147h-240v142l158 495h240v-495h67v-142h-67v-147h-158zM854 641l-88 -352h88v352zM229 0l422 1569h166l-422 -1569h-166z" />
    <glyph glyph-name="onehalf" unicode="&#xbd;" horiz-adv-x="1155" 
d="M158 786v611l-127 -60v158l149 76h146v-785h-168zM676 0v109q0 49 28 94t67.5 79t79 67t67.5 72t28 79v82q0 71 -53 71t-53 -71v-88h-164v100q0 89 51.5 146t165.5 57q117 0 169 -57.5t52 -145.5v-105q0 -54 -24 -100.5t-58 -78t-67.5 -59t-57.5 -54t-24 -50.5h215v-147
h-422zM229 0l422 1569h166l-422 -1569h-166z" />
    <glyph glyph-name="threequarters" unicode="&#xbe;" horiz-adv-x="1220" 
d="M481 954q0 -83 -54.5 -132.5t-164.5 -49.5q-112 0 -165.5 49.5t-53.5 132.5v50h166v-19q0 -72 53 -72q51 0 51 72v62q0 38 -18.5 50.5t-58.5 12.5q-16 0 -41 -2v141q23 -2 38 -2q41 0 60.5 12t19.5 50v59q0 72 -51 72q-53 0 -53 -72v-22h-166v53q0 83 53.5 132.5
t165.5 49.5q110 0 164.5 -49.5t54.5 -132.5v-76q0 -53 -17 -86.5t-63 -52.5q80 -28 80 -160v-70zM963 0v147h-240v142l158 495h239v-495h68v-142h-68v-147h-157zM963 641l-89 -352h89v352zM340 0l422 1569h166l-422 -1569h-166z" />
    <glyph glyph-name="questiondown" unicode="&#xbf;" horiz-adv-x="714" 
d="M684 -39q0 -168 -84.5 -257t-249.5 -89q-313 0 -313 336v242q0 139 51 216.5t184 100.5l21 309h168l20 -500q-12 5 -39 5q-26 0 -55.5 -5.5t-63 -19t-55.5 -42.5t-22 -69v-221q0 -80 33 -117.5t81 -37.5t81.5 37.5t33.5 117.5v183h209v-189zM502 1098q0 -54 -37.5 -91.5
t-91.5 -37.5t-91.5 37.5t-37.5 91.5t37.5 91.5t91.5 37.5t91.5 -37.5t37.5 -91.5z" />
    <glyph glyph-name="Agrave" unicode="&#xc0;" horiz-adv-x="743" 
d="M528 0l-41 348h-231l-41 -348h-209l211 1569h307l213 -1569h-209zM371 1329l-92 -782h184zM311 1712l-194 268h227l117 -268h-150z" />
    <glyph glyph-name="Aacute" unicode="&#xc1;" horiz-adv-x="743" 
d="M528 0l-41 348h-231l-41 -348h-209l211 1569h307l213 -1569h-209zM371 1329l-92 -782h184zM268 1712l117 268h227l-194 -268h-150z" />
    <glyph glyph-name="Acircumflex" unicode="&#xc2;" horiz-adv-x="743" 
d="M528 0l-41 348h-231l-41 -348h-209l211 1569h307l213 -1569h-209zM371 1329l-92 -782h184zM461 1712l-92 158l-82 -158h-166l153 289h185l162 -289h-160z" />
    <glyph glyph-name="Atilde" unicode="&#xc3;" horiz-adv-x="743" 
d="M528 0l-41 348h-231l-41 -348h-209l211 1569h307l213 -1569h-209zM371 1329l-92 -782h184zM623 1907q-5 -88 -41.5 -141.5t-106.5 -53.5q-34 0 -87.5 19.5t-82.5 19.5q-15 0 -23.5 -2t-17.5 -11.5t-12 -27.5h-133q5 88 41 141.5t106 53.5q34 0 87.5 -19.5t82.5 -19.5
q13 0 21 1.5t18.5 11t13.5 28.5h134z" />
    <glyph glyph-name="Adieresis" unicode="&#xc4;" horiz-adv-x="743" 
d="M528 0l-41 348h-231l-41 -348h-209l211 1569h307l213 -1569h-209zM371 1329l-92 -782h184zM197 1692q-51 0 -87 35t-36 88q0 50 36.5 85t86.5 35q51 0 85.5 -34.5t34.5 -85.5q0 -54 -34.5 -88.5t-85.5 -34.5zM545 1692q-50 0 -85.5 35t-35.5 88q0 51 35.5 85.5t85.5 34.5
q54 0 88.5 -34.5t34.5 -85.5q0 -54 -34.5 -88.5t-88.5 -34.5z" />
    <glyph glyph-name="Aring" unicode="&#xc5;" horiz-adv-x="743" 
d="M528 0l-41 348h-231l-41 -348h-209l211 1569h307l213 -1569h-209zM371 1329l-92 -782h184zM434 1847q0 29 -17 46.5t-46 17.5t-46.5 -17.5t-17.5 -46.5t17.5 -46t46.5 -17t46 17t17 46zM371 1669q-75 0 -126.5 51.5t-51.5 126.5t51.5 126.5t126.5 51.5t126.5 -51.5
t51.5 -126.5t-51.5 -126.5t-126.5 -51.5z" />
    <glyph glyph-name="AE" unicode="&#xc6;" horiz-adv-x="1126" 
d="M510 0v348h-231l-89 -348h-206l405 1569h682v-199h-352v-479h338v-199h-338v-493h352v-199h-561zM510 1274l-182 -717h182v717z" />
    <glyph glyph-name="Ccedilla" unicode="&#xc7;" horiz-adv-x="772" 
d="M268 -246q32 -18 70 -18q37 0 58.5 19.5t21.5 45.5t-20 44t-64 18q-15 0 -21 -2l29 116q-121 14 -195.5 95.5t-74.5 228.5v967q0 165 91 246t240 81q51 0 96 -9.5t86 -32.5t70 -58t46.5 -89.5t17.5 -123.5v-260h-209v219q0 80 -33.5 118t-81.5 38t-81 -38t-33 -118v-913
q0 -80 33 -118t81 -38t81.5 38t33.5 118v196h209v-223q0 -139 -63 -217t-169 -100l-20 -78q63 0 99 -39.5t36 -93.5q0 -66 -53.5 -114t-155.5 -48q-87 0 -155 29z" />
    <glyph glyph-name="Egrave" unicode="&#xc8;" horiz-adv-x="698" 
d="M82 0v1569h561v-199h-352v-479h338v-199h-338v-493h352v-199h-561zM336 1712l-195 268h228l116 -268h-149z" />
    <glyph glyph-name="Eacute" unicode="&#xc9;" horiz-adv-x="698" 
d="M82 0v1569h561v-199h-352v-479h338v-199h-338v-493h352v-199h-561zM250 1712l117 268h227l-195 -268h-149z" />
    <glyph glyph-name="Ecircumflex" unicode="&#xca;" horiz-adv-x="698" 
d="M82 0v1569h561v-199h-352v-479h338v-199h-338v-493h352v-199h-561zM446 1712l-92 158l-82 -158h-166l154 289h184l162 -289h-160z" />
    <glyph glyph-name="Edieresis" unicode="&#xcb;" horiz-adv-x="698" 
d="M82 0v1569h561v-199h-352v-479h338v-199h-338v-493h352v-199h-561zM186 1692q-51 0 -87 35t-36 88q0 50 36.5 85t86.5 35q51 0 86 -34.5t35 -85.5q0 -53 -34.5 -88t-86.5 -35zM535 1692q-50 0 -85.5 35t-35.5 88q0 51 35.5 85.5t85.5 34.5q53 0 87.5 -34.5t34.5 -85.5
q0 -54 -34 -88.5t-88 -34.5z" />
    <glyph glyph-name="Igrave" unicode="&#xcc;" horiz-adv-x="372" 
d="M82 0v1569h209v-1569h-209zM133 1712l-194 268h227l117 -268h-150z" />
    <glyph glyph-name="Iacute" unicode="&#xcd;" horiz-adv-x="372" 
d="M82 0v1569h209v-1569h-209zM86 1712l117 268h227l-194 -268h-150z" />
    <glyph glyph-name="Icircumflex" unicode="&#xce;" horiz-adv-x="372" 
d="M82 0v1569h209v-1569h-209zM276 1712l-92 158l-82 -158h-165l153 289h184l162 -289h-160z" />
    <glyph glyph-name="Idieresis" unicode="&#xcf;" horiz-adv-x="372" 
d="M82 0v1569h209v-1569h-209zM12 1692q-51 0 -87 35t-36 88q0 50 36.5 85t86.5 35q51 0 86 -34.5t35 -85.5q0 -53 -34.5 -88t-86.5 -35zM360 1692q-50 0 -85 35t-35 88q0 51 35 85.5t85 34.5q54 0 88.5 -34.5t34.5 -85.5q0 -54 -34.5 -88.5t-88.5 -34.5z" />
    <glyph glyph-name="Eth" unicode="&#xd0;" horiz-adv-x="794" 
d="M86 0v694h-88v195h88v680h352q128 0 206.5 -80t78.5 -248v-913q0 -168 -78.5 -248t-206.5 -80h-352zM514 1214q0 85 -27 120.5t-88 35.5h-104v-481h111v-195h-111v-495h104q61 0 88 35t27 120v860z" />
    <glyph glyph-name="Ntilde" unicode="&#xd1;" horiz-adv-x="917" 
d="M563 0l-276 1047l4 -1047h-209v1569h262l287 -1065l-4 1065h209v-1569h-273zM737 1907q-5 -88 -41 -141.5t-106 -53.5q-34 0 -87.5 19.5t-82.5 19.5q-15 0 -23.5 -2t-17.5 -11.5t-12 -27.5h-134q5 88 41.5 141.5t106.5 53.5q34 0 87.5 -19.5t82.5 -19.5q13 0 21 1.5
t18.5 11t13.5 28.5h133z" />
    <glyph glyph-name="Ograve" unicode="&#xd2;" horiz-adv-x="790" 
d="M72 1268q0 165 92 246t244 81q311 0 311 -327v-967q0 -86 -25.5 -150.5t-71 -102.5t-102 -56.5t-123.5 -18.5t-124.5 19t-103 57.5t-71.5 103t-26 148.5v967zM510 1241q0 80 -33.5 118t-81.5 38t-81 -38t-33 -118v-913q0 -80 33 -118t81 -38t81.5 38t33.5 118v913z
M346 1712l-194 268h227l117 -268h-150z" />
    <glyph glyph-name="Oacute" unicode="&#xd3;" horiz-adv-x="790" 
d="M72 1268q0 165 92 246t244 81q311 0 311 -327v-967q0 -86 -25.5 -150.5t-71 -102.5t-102 -56.5t-123.5 -18.5t-124.5 19t-103 57.5t-71.5 103t-26 148.5v967zM510 1241q0 80 -33.5 118t-81.5 38t-81 -38t-33 -118v-913q0 -80 33 -118t81 -38t81.5 38t33.5 118v913z
M305 1712l117 268h227l-194 -268h-150z" />
    <glyph glyph-name="Ocircumflex" unicode="&#xd4;" horiz-adv-x="790" 
d="M72 1268q0 165 92 246t244 81q311 0 311 -327v-967q0 -86 -25.5 -150.5t-71 -102.5t-102 -56.5t-123.5 -18.5t-124.5 19t-103 57.5t-71.5 103t-26 148.5v967zM510 1241q0 80 -33.5 118t-81.5 38t-81 -38t-33 -118v-913q0 -80 33 -118t81 -38t81.5 38t33.5 118v913z
M485 1712l-92 158l-82 -158h-166l154 289h184l162 -289h-160z" />
    <glyph glyph-name="Otilde" unicode="&#xd5;" horiz-adv-x="790" 
d="M72 1268q0 165 92 246t244 81q311 0 311 -327v-967q0 -86 -25.5 -150.5t-71 -102.5t-102 -56.5t-123.5 -18.5t-124.5 19t-103 57.5t-71.5 103t-26 148.5v967zM510 1241q0 80 -33.5 118t-81.5 38t-81 -38t-33 -118v-913q0 -80 33 -118t81 -38t81.5 38t33.5 118v913z
M647 1907q-5 -88 -41 -141.5t-106 -53.5q-34 0 -87.5 19.5t-82.5 19.5q-15 0 -23.5 -2t-18 -11.5t-12.5 -27.5h-133q5 88 41.5 141.5t106.5 53.5q34 0 87.5 -19.5t82.5 -19.5q13 0 21 1.5t18.5 11t13.5 28.5h133z" />
    <glyph glyph-name="Odieresis" unicode="&#xd6;" horiz-adv-x="790" 
d="M72 1268q0 165 92 246t244 81q311 0 311 -327v-967q0 -86 -25.5 -150.5t-71 -102.5t-102 -56.5t-123.5 -18.5t-124.5 19t-103 57.5t-71.5 103t-26 148.5v967zM510 1241q0 80 -33.5 118t-81.5 38t-81 -38t-33 -118v-913q0 -80 33 -118t81 -38t81.5 38t33.5 118v913z
M221 1692q-51 0 -87 35t-36 88q0 50 36.5 85t86.5 35q51 0 86 -34.5t35 -85.5q0 -53 -35 -88t-86 -35zM569 1692q-50 0 -85 35t-35 88q0 51 35 85.5t85 34.5q54 0 88.5 -34.5t34.5 -85.5q0 -54 -34.5 -88.5t-88.5 -34.5z" />
    <glyph glyph-name="multiply" unicode="&#xd7;" horiz-adv-x="864" 
d="M434 606l-209 -209l-139 140l209 208l-207 207l135 135l207 -206l209 209l139 -140l-209 -209l207 -206l-135 -136z" />
    <glyph glyph-name="Oslash" unicode="&#xd8;" horiz-adv-x="790" 
d="M221 -109l17 113q-166 80 -166 297v967q0 165 92 246t244 81q40 0 77 -6l15 86h75l-16 -106q160 -66 160 -301v-967q0 -86 -25.5 -150.5t-71 -102.5t-102 -56.5t-123.5 -18.5q-51 0 -86 9l-14 -91h-76zM453 1378q-25 19 -58 19q-48 0 -81 -38t-33 -118v-913l2 -119z
M510 1317l-168 -1133q24 -12 53 -12q48 0 81.5 38t33.5 118v989z" />
    <glyph glyph-name="Ugrave" unicode="&#xd9;" horiz-adv-x="802" 
d="M516 1569h209v-1268q0 -86 -25.5 -150.5t-71 -102.5t-102 -56.5t-123.5 -18.5t-124.5 19t-103 57.5t-71.5 103t-26 148.5v1268h209v-1241q0 -80 33 -118t81 -38t81.5 38t33.5 118v1241zM346 1712l-194 268h227l117 -268h-150z" />
    <glyph glyph-name="Uacute" unicode="&#xda;" horiz-adv-x="802" 
d="M516 1569h209v-1268q0 -86 -25.5 -150.5t-71 -102.5t-102 -56.5t-123.5 -18.5t-124.5 19t-103 57.5t-71.5 103t-26 148.5v1268h209v-1241q0 -80 33 -118t81 -38t81.5 38t33.5 118v1241zM313 1712l117 268h227l-194 -268h-150z" />
    <glyph glyph-name="Ucircumflex" unicode="&#xdb;" horiz-adv-x="802" 
d="M516 1569h209v-1268q0 -86 -25.5 -150.5t-71 -102.5t-102 -56.5t-123.5 -18.5t-124.5 19t-103 57.5t-71.5 103t-26 148.5v1268h209v-1241q0 -80 33 -118t81 -38t81.5 38t33.5 118v1241zM471 1712l-92 158l-82 -158h-166l154 289h184l162 -289h-160z" />
    <glyph glyph-name="Udieresis" unicode="&#xdc;" horiz-adv-x="802" 
d="M516 1569h209v-1268q0 -86 -25.5 -150.5t-71 -102.5t-102 -56.5t-123.5 -18.5t-124.5 19t-103 57.5t-71.5 103t-26 148.5v1268h209v-1241q0 -80 33 -118t81 -38t81.5 38t33.5 118v1241zM227 1692q-51 0 -87 35t-36 88q0 50 36.5 85t86.5 35q51 0 86 -34.5t35 -85.5
q0 -53 -35 -88t-86 -35zM575 1692q-50 0 -85 35t-35 88q0 51 35 85.5t85 34.5q54 0 88.5 -34.5t34.5 -85.5q0 -54 -34.5 -88.5t-88.5 -34.5z" />
    <glyph glyph-name="Yacute" unicode="&#xdd;" horiz-adv-x="731" 
d="M260 0v545l-260 1024h211l154 -711l157 711h211l-264 -1022v-547h-209zM274 1712l117 268h227l-194 -268h-150z" />
    <glyph glyph-name="Thorn" unicode="&#xde;" horiz-adv-x="753" 
d="M82 0v1569h209v-334h129q299 0 299 -348v-201q0 -348 -279 -348h-149v-338h-209zM510 881q0 85 -27 120t-88 35h-104v-499h104q61 0 88 35t27 120v189z" />
    <glyph glyph-name="germandbls" unicode="&#xdf;" horiz-adv-x="720" 
d="M328 184q16 -2 34 -2q29 0 48 7.5t29.5 18.5t16 34t6.5 42.5t1 55.5v270q0 241 -115 260v168q68 16 91.5 66.5t23.5 138.5v19q0 124 -94 124q-95 0 -95 -124v-1262h-204v1268q0 313 299 313t299 -313v-39q0 -121 -44 -186t-112 -85q156 -31 156 -247v-400
q0 -70 -14 -127.5t-43 -103t-80 -71t-119 -25.5q-39 0 -84 10v190z" />
    <glyph glyph-name="agrave" unicode="&#xe0;" horiz-adv-x="677" 
d="M434 0l-18 96q-13 -23 -25 -39t-34 -34.5t-55 -28.5t-75 -10q-33 0 -56 6.5t-47 28.5t-38.5 60t-23.5 104t-9 159v33q0 168 43.5 237.5t134.5 69.5q35 0 64 -8t50.5 -25t33 -29t27.5 -32v239q0 87 -16 121.5t-58 34.5t-58 -34.5t-16 -121.5v-36h-205v71q0 154 67 235
t216 81q78 0 133 -23t85 -68t43 -101t13 -130v-856h-176zM406 356q0 70 -16.5 100.5t-57.5 30.5q-42 0 -58 -34t-16 -121v-8q0 -79 16 -111.5t58 -32.5q35 0 54.5 26.5t19.5 104.5v45zM309 1305l-194 268h227l117 -268h-150z" />
    <glyph glyph-name="aacute" unicode="&#xe1;" horiz-adv-x="677" 
d="M434 0l-18 96q-13 -23 -25 -39t-34 -34.5t-55 -28.5t-75 -10q-33 0 -56 6.5t-47 28.5t-38.5 60t-23.5 104t-9 159v33q0 168 43.5 237.5t134.5 69.5q35 0 64 -8t50.5 -25t33 -29t27.5 -32v239q0 87 -16 121.5t-58 34.5t-58 -34.5t-16 -121.5v-36h-205v71q0 154 67 235
t216 81q78 0 133 -23t85 -68t43 -101t13 -130v-856h-176zM406 356q0 70 -16.5 100.5t-57.5 30.5q-42 0 -58 -34t-16 -121v-8q0 -79 16 -111.5t58 -32.5q35 0 54.5 26.5t19.5 104.5v45zM229 1305l117 268h227l-194 -268h-150z" />
    <glyph glyph-name="acircumflex" unicode="&#xe2;" horiz-adv-x="677" 
d="M434 0l-18 96q-13 -23 -25 -39t-34 -34.5t-55 -28.5t-75 -10q-33 0 -56 6.5t-47 28.5t-38.5 60t-23.5 104t-9 159v33q0 168 43.5 237.5t134.5 69.5q35 0 64 -8t50.5 -25t33 -29t27.5 -32v239q0 87 -16 121.5t-58 34.5t-58 -34.5t-16 -121.5v-36h-205v71q0 154 67 235
t216 81q78 0 133 -23t85 -68t43 -101t13 -130v-856h-176zM406 356q0 70 -16.5 100.5t-57.5 30.5q-42 0 -58 -34t-16 -121v-8q0 -79 16 -111.5t58 -32.5q35 0 54.5 26.5t19.5 104.5v45zM420 1305l-92 157l-82 -157h-166l153 288h185l162 -288h-160z" />
    <glyph glyph-name="atilde" unicode="&#xe3;" horiz-adv-x="677" 
d="M434 0l-18 96q-13 -23 -25 -39t-34 -34.5t-55 -28.5t-75 -10q-33 0 -56 6.5t-47 28.5t-38.5 60t-23.5 104t-9 159v33q0 168 43.5 237.5t134.5 69.5q35 0 64 -8t50.5 -25t33 -29t27.5 -32v239q0 87 -16 121.5t-58 34.5t-58 -34.5t-16 -121.5v-36h-205v71q0 154 67 235
t216 81q78 0 133 -23t85 -68t43 -101t13 -130v-856h-176zM406 356q0 70 -16.5 100.5t-57.5 30.5q-42 0 -58 -34t-16 -121v-8q0 -79 16 -111.5t58 -32.5q35 0 54.5 26.5t19.5 104.5v45zM584 1499q-5 -87 -41.5 -140.5t-106.5 -53.5q-34 0 -87.5 19t-82.5 19q-15 0 -23.5 -1.5
t-17.5 -11t-12 -27.5h-133q5 88 41 141t106 53q34 0 87.5 -19.5t82.5 -19.5q48 0 54 41h133z" />
    <glyph glyph-name="adieresis" unicode="&#xe4;" horiz-adv-x="675" 
d="M434 0l-18 96q-13 -23 -25 -39t-34 -34.5t-55 -28.5t-75 -10q-33 0 -56 6.5t-47 28.5t-38.5 60t-23.5 104t-9 159v33q0 168 43.5 237.5t134.5 69.5q35 0 64 -8t50.5 -25t33 -29t27.5 -32v239q0 87 -16 121.5t-58 34.5t-58 -34.5t-16 -121.5v-36h-205v71q0 154 67 235
t216 81q78 0 133 -23t85 -68t43 -101t13 -130v-856h-176zM406 356q0 70 -16.5 100.5t-57.5 30.5q-42 0 -58 -34t-16 -121v-8q0 -79 16 -111.5t58 -32.5q35 0 54.5 26.5t19.5 104.5v45zM158 1284q-51 0 -87 35t-36 88q0 50 36.5 85.5t86.5 35.5q51 0 86 -35t35 -86
q0 -53 -34.5 -88t-86.5 -35zM506 1284q-50 0 -85.5 35t-35.5 88q0 51 35.5 86t85.5 35q54 0 88.5 -35t34.5 -86q0 -54 -34.5 -88.5t-88.5 -34.5z" />
    <glyph glyph-name="aring" unicode="&#xe5;" horiz-adv-x="677" 
d="M434 0l-18 96q-13 -23 -25 -39t-34 -34.5t-55 -28.5t-75 -10q-33 0 -56 6.5t-47 28.5t-38.5 60t-23.5 104t-9 159v33q0 168 43.5 237.5t134.5 69.5q35 0 64 -8t50.5 -25t33 -29t27.5 -32v239q0 87 -16 121.5t-58 34.5t-58 -34.5t-16 -121.5v-36h-205v71q0 154 67 235
t216 81q78 0 133 -23t85 -68t43 -101t13 -130v-856h-176zM406 356q0 70 -16.5 100.5t-57.5 30.5q-42 0 -58 -34t-16 -121v-8q0 -79 16 -111.5t58 -32.5q35 0 54.5 26.5t19.5 104.5v45zM397 1440q0 29 -17 46t-46 17t-46.5 -17t-17.5 -46t17.5 -46.5t46.5 -17.5t46 17.5
t17 46.5zM334 1262q-75 0 -126.5 51.5t-51.5 126.5t51.5 126.5t126.5 51.5t126.5 -51.5t51.5 -126.5t-51.5 -126.5t-126.5 -51.5z" />
    <glyph glyph-name="ae" unicode="&#xe6;" horiz-adv-x="1013" 
d="M963 311q0 -170 -67.5 -248.5t-209.5 -78.5q-194 0 -252 143q-44 -78 -88 -110.5t-119 -32.5q-33 0 -56 6.5t-47 28.5t-38.5 60t-23.5 104t-9 159v33q0 168 43.5 237.5t134.5 69.5q35 0 64 -8t50.5 -25t33 -29t27.5 -32v264q0 72 -16.5 101.5t-57.5 29.5q-42 0 -58 -34.5
t-16 -121.5v-36h-205v71q0 154 67 235t216 81q111 0 174 -48q67 48 176 48q142 0 209.5 -78.5t67.5 -249.5v-356h-353v-158q0 -87 16 -121.5t58 -34.5t58 34.5t16 121.5v47h205v-72zM758 827q0 87 -16 121.5t-58 34.5t-58 -34.5t-16 -121.5v-141h148v141zM406 356
q0 70 -16.5 100.5t-57.5 30.5q-42 0 -58 -34t-16 -121v-8q0 -79 16 -111.5t58 -32.5q35 0 54.5 26.5t19.5 104.5v45z" />
    <glyph glyph-name="ccedilla" unicode="&#xe7;" horiz-adv-x="655" 
d="M197 -246q31 -18 69 -18q37 0 58.5 19.5t21.5 45.5t-20 44t-64 18q-14 0 -20 -2l30 127q-115 17 -168 95t-53 228v539q0 168 67.5 248t213.5 80q142 0 209 -78.5t67 -249.5v-115h-205v92q0 88 -15.5 122t-57.5 34t-58 -34.5t-16 -121.5v-491q0 -87 16 -121.5t58 -34.5
t57.5 34t15.5 122v119h205v-144q0 -276 -188 -317l-25 -88q63 0 99 -39.5t36 -93.5q0 -66 -53 -114t-155 -48q-88 0 -156 29z" />
    <glyph glyph-name="egrave" unicode="&#xe8;" horiz-adv-x="669" 
d="M618 311q0 -171 -67 -249t-209 -78q-146 0 -213.5 79.5t-67.5 247.5v539q0 168 67.5 248t213.5 80q142 0 209 -78.5t67 -249.5v-356h-352v-158q0 -87 16 -121.5t58 -34.5t58 34.5t16 121.5v47h204v-72zM414 827q0 87 -16 121.5t-58 34.5t-58 -34.5t-16 -121.5v-141h148
v141zM305 1305l-194 268h227l117 -268h-150z" />
    <glyph glyph-name="eacute" unicode="&#xe9;" horiz-adv-x="669" 
d="M618 311q0 -171 -67 -249t-209 -78q-146 0 -213.5 79.5t-67.5 247.5v539q0 168 67.5 248t213.5 80q142 0 209 -78.5t67 -249.5v-356h-352v-158q0 -87 16 -121.5t58 -34.5t58 34.5t16 121.5v47h204v-72zM414 827q0 87 -16 121.5t-58 34.5t-58 -34.5t-16 -121.5v-141h148
v141zM229 1305l117 268h227l-194 -268h-150z" />
    <glyph glyph-name="ecircumflex" unicode="&#xea;" horiz-adv-x="669" 
d="M618 311q0 -171 -67 -249t-209 -78q-146 0 -213.5 79.5t-67.5 247.5v539q0 168 67.5 248t213.5 80q142 0 209 -78.5t67 -249.5v-356h-352v-158q0 -87 16 -121.5t58 -34.5t58 34.5t16 121.5v47h204v-72zM414 827q0 87 -16 121.5t-58 34.5t-58 -34.5t-16 -121.5v-141h148
v141zM428 1305l-92 157l-82 -157h-166l154 288h184l162 -288h-160z" />
    <glyph glyph-name="edieresis" unicode="&#xeb;" horiz-adv-x="669" 
d="M618 311q0 -171 -67 -249t-209 -78q-146 0 -213.5 79.5t-67.5 247.5v539q0 168 67.5 248t213.5 80q142 0 209 -78.5t67 -249.5v-356h-352v-158q0 -87 16 -121.5t58 -34.5t58 34.5t16 121.5v47h204v-72zM414 827q0 87 -16 121.5t-58 34.5t-58 -34.5t-16 -121.5v-141h148
v141zM166 1284q-51 0 -87 35t-36 88q0 50 36.5 85.5t86.5 35.5q51 0 86 -35t35 -86q0 -53 -34.5 -88t-86.5 -35zM514 1284q-50 0 -85.5 35t-35.5 88q0 51 35.5 86t85.5 35q54 0 88.5 -35t34.5 -86q0 -54 -34.5 -88.5t-88.5 -34.5z" />
    <glyph glyph-name="igrave" unicode="&#xec;" horiz-adv-x="344" 
d="M70 0v1161h204v-1161h-204zM127 1305l-195 268h228l116 -268h-149z" />
    <glyph glyph-name="iacute" unicode="&#xed;" horiz-adv-x="344" 
d="M70 0v1161h204v-1161h-204zM66 1305l116 268h228l-195 -268h-149z" />
    <glyph glyph-name="icircumflex" unicode="&#xee;" horiz-adv-x="344" 
d="M70 0v1161h204v-1161h-204zM262 1305l-92 157l-82 -157h-166l154 288h184l162 -288h-160z" />
    <glyph glyph-name="idieresis" unicode="&#xef;" horiz-adv-x="344" 
d="M70 0v1161h204v-1161h-204zM-2 1284q-51 0 -87 35t-36 88q0 50 36.5 85.5t86.5 35.5q51 0 86 -35t35 -86q0 -53 -34.5 -88t-86.5 -35zM346 1284q-50 0 -85.5 35t-35.5 88q0 51 35.5 86t85.5 35q54 0 88.5 -35t34.5 -86q0 -54 -34.5 -88.5t-88.5 -34.5z" />
    <glyph glyph-name="eth" unicode="&#xf0;" horiz-adv-x="686" 
d="M63 911q0 135 41.5 202t131.5 67q67 0 118 -33.5t66 -75.5q-3 171 -78 246l-74 -76l-51 51l64 66q-34 17 -154 51l39 164q163 -23 254 -74l84 86l51 -51l-74 -76q81 -66 110.5 -185t29.5 -329v-651q0 -309 -279 -309t-279 309v618zM416 827q0 87 -18.5 122.5t-57.5 35.5
q-40 0 -56 -33.5t-16 -103.5v-555q0 -115 74 -115t74 115v534z" />
    <glyph glyph-name="ntilde" unicode="&#xf1;" 
d="M422 0v827q0 87 -16 121.5t-58 34.5t-58 -34.5t-16 -121.5v-827h-204v1161h176l18 -94q14 22 26 36.5t34.5 34t55 30t73.5 10.5q102 0 138 -73t36 -247v-858h-205zM600 1499q-5 -88 -41 -141t-106 -53q-34 0 -87.5 19t-82.5 19q-15 0 -23.5 -1.5t-18 -11t-12.5 -27.5
h-133q5 87 41.5 140.5t106.5 53.5q34 0 87.5 -19.5t82.5 -19.5q13 0 21 1.5t18.5 11t13.5 28.5h133z" />
    <glyph glyph-name="ograve" unicode="&#xf2;" horiz-adv-x="679" 
d="M618 311q0 -171 -67 -249t-209 -78q-146 0 -213.5 79.5t-67.5 247.5v539q0 168 67.5 248t213.5 80q142 0 209 -78.5t67 -249.5v-539zM414 827q0 87 -16 121.5t-58 34.5t-58 -34.5t-16 -121.5v-491q0 -87 16 -121.5t58 -34.5t58 34.5t16 121.5v491zM305 1305l-194 268h227
l117 -268h-150z" />
    <glyph glyph-name="oacute" unicode="&#xf3;" horiz-adv-x="679" 
d="M618 311q0 -171 -67 -249t-209 -78q-146 0 -213.5 79.5t-67.5 247.5v539q0 168 67.5 248t213.5 80q142 0 209 -78.5t67 -249.5v-539zM414 827q0 87 -16 121.5t-58 34.5t-58 -34.5t-16 -121.5v-491q0 -87 16 -121.5t58 -34.5t58 34.5t16 121.5v491zM229 1305l117 268h227
l-194 -268h-150z" />
    <glyph glyph-name="ocircumflex" unicode="&#xf4;" horiz-adv-x="679" 
d="M618 311q0 -171 -67 -249t-209 -78q-146 0 -213.5 79.5t-67.5 247.5v539q0 168 67.5 248t213.5 80q142 0 209 -78.5t67 -249.5v-539zM414 827q0 87 -16 121.5t-58 34.5t-58 -34.5t-16 -121.5v-491q0 -87 16 -121.5t58 -34.5t58 34.5t16 121.5v491zM430 1305l-92 157
l-82 -157h-166l154 288h184l162 -288h-160z" />
    <glyph glyph-name="otilde" unicode="&#xf5;" horiz-adv-x="679" 
d="M618 311q0 -171 -67 -249t-209 -78q-146 0 -213.5 79.5t-67.5 247.5v539q0 168 67.5 248t213.5 80q142 0 209 -78.5t67 -249.5v-539zM414 827q0 87 -16 121.5t-58 34.5t-58 -34.5t-16 -121.5v-491q0 -87 16 -121.5t58 -34.5t58 34.5t16 121.5v491zM592 1499
q-5 -87 -41.5 -140.5t-106.5 -53.5q-34 0 -87.5 19t-82.5 19q-15 0 -23.5 -1.5t-17.5 -11t-12 -27.5h-133q5 87 41.5 140.5t106.5 53.5q34 0 87.5 -19.5t82.5 -19.5q13 0 21 1.5t18.5 11t13.5 28.5h133z" />
    <glyph glyph-name="odieresis" unicode="&#xf6;" horiz-adv-x="679" 
d="M618 311q0 -171 -67 -249t-209 -78q-146 0 -213.5 79.5t-67.5 247.5v539q0 168 67.5 248t213.5 80q142 0 209 -78.5t67 -249.5v-539zM414 827q0 87 -16 121.5t-58 34.5t-58 -34.5t-16 -121.5v-491q0 -87 16 -121.5t58 -34.5t58 34.5t16 121.5v491zM166 1284q-51 0 -87 35
t-36 88q0 50 36.5 85.5t86.5 35.5q51 0 86 -35t35 -86q0 -53 -34.5 -88t-86.5 -35zM514 1284q-50 0 -85.5 35t-35.5 88q0 51 35.5 86t85.5 35q54 0 88.5 -35t34.5 -86q0 -54 -34.5 -88.5t-88.5 -34.5z" />
    <glyph glyph-name="divide" unicode="&#xf7;" horiz-adv-x="864" 
d="M432 266q-54 0 -91.5 37.5t-37.5 91.5t37.5 91.5t91.5 37.5t91.5 -37.5t37.5 -91.5t-37.5 -91.5t-91.5 -37.5zM432 963q-54 0 -91.5 37.5t-37.5 91.5t37.5 91.5t91.5 37.5t91.5 -37.5t37.5 -91.5t-37.5 -91.5t-91.5 -37.5zM41 647v193h782v-193h-782z" />
    <glyph glyph-name="oslash" unicode="&#xf8;" horiz-adv-x="679" 
d="M205 -109l16 109q-160 59 -160 311v539q0 168 67.5 248t213.5 80q23 0 59 -4l15 88h63l-16 -103q155 -58 155 -309v-539q0 -171 -67 -249t-209 -78q-23 0 -59 4l-15 -97h-63zM371 977q-12 6 -31 6q-42 0 -58 -34.5t-16 -121.5v-620zM414 918l-101 -734q8 -4 27 -4
q42 0 58 34.5t16 121.5v582z" />
    <glyph glyph-name="ugrave" unicode="&#xf9;" 
d="M449 0l-19 94q-14 -22 -26 -36.5t-34 -34t-54.5 -29.5t-73.5 -10q-102 0 -138 72.5t-36 246.5v858h204v-827q0 -87 16 -121.5t58 -34.5t58 34.5t16 121.5v827h205v-1161h-176zM295 1305l-195 268h228l116 -268h-149z" />
    <glyph glyph-name="uacute" unicode="&#xfa;" 
d="M449 0l-19 94q-14 -22 -26 -36.5t-34 -34t-54.5 -29.5t-73.5 -10q-102 0 -138 72.5t-36 246.5v858h204v-827q0 -87 16 -121.5t58 -34.5t58 34.5t16 121.5v827h205v-1161h-176zM236 1305l116 268h228l-195 -268h-149z" />
    <glyph glyph-name="ucircumflex" unicode="&#xfb;" 
d="M449 0l-19 94q-14 -22 -26 -36.5t-34 -34t-54.5 -29.5t-73.5 -10q-102 0 -138 72.5t-36 246.5v858h204v-827q0 -87 16 -121.5t58 -34.5t58 34.5t16 121.5v827h205v-1161h-176zM436 1305l-92 157l-82 -157h-166l154 288h184l162 -288h-160z" />
    <glyph glyph-name="udieresis" unicode="&#xfc;" 
d="M449 0l-19 94q-14 -22 -26 -36.5t-34 -34t-54.5 -29.5t-73.5 -10q-102 0 -138 72.5t-36 246.5v858h204v-827q0 -87 16 -121.5t58 -34.5t58 34.5t16 121.5v827h205v-1161h-176zM174 1284q-51 0 -87 35t-36 88q0 50 36.5 85.5t86.5 35.5q51 0 86 -35t35 -86
q0 -53 -34.5 -88t-86.5 -35zM522 1284q-50 0 -85.5 35t-35.5 88q0 51 35.5 86t85.5 35q54 0 88.5 -35t34.5 -86q0 -54 -34.5 -88.5t-88.5 -34.5z" />
    <glyph glyph-name="yacute" unicode="&#xfd;" horiz-adv-x="647" 
d="M184 -410l62 332l-244 1239h213l117 -823l90 823h213l-238 -1571h-213zM213 1305l117 268h227l-195 -268h-149z" />
    <glyph glyph-name="thorn" unicode="&#xfe;" horiz-adv-x="690" 
d="M70 -408v1977h204v-488q19 28 34 45t54 34.5t91 17.5q102 0 138 -73t36 -247v-555q0 -175 -36 -247t-140 -72q-39 0 -69 8.5t-51 25.5t-32.5 30.5t-24.5 33.5v-490h-204zM422 827q0 87 -16 121.5t-58 34.5t-58 -34.5t-16 -121.5v-493q0 -87 16 -121.5t58 -34.5t58 34.5
t16 121.5v493z" />
    <glyph glyph-name="ydieresis" unicode="&#xff;" horiz-adv-x="647" 
d="M184 -410l62 332l-244 1239h213l117 -823l90 823h213l-238 -1571h-213zM145 1284q-50 0 -86 35t-36 88q0 51 36 86t86 35q51 0 86 -35t35 -86q0 -53 -35 -88t-86 -35zM494 1284q-50 0 -85.5 35t-35.5 88q0 51 35.5 86t85.5 35q53 0 87.5 -34.5t34.5 -86.5
q0 -54 -34 -88.5t-88 -34.5z" />
    <glyph glyph-name="Amacron" unicode="&#x100;" horiz-adv-x="743" 
d="M528 0l-41 348h-231l-41 -348h-209l211 1569h307l213 -1569h-209zM371 1329l-92 -782h184zM102 1712v166h537v-166h-537z" />
    <glyph glyph-name="amacron" unicode="&#x101;" horiz-adv-x="677" 
d="M434 0l-18 96q-13 -23 -25 -39t-34 -34.5t-55 -28.5t-75 -10q-33 0 -56 6.5t-47 28.5t-38.5 60t-23.5 104t-9 159v33q0 168 43.5 237.5t134.5 69.5q35 0 64 -8t50.5 -25t33 -29t27.5 -32v239q0 87 -16 121.5t-58 34.5t-58 -34.5t-16 -121.5v-36h-205v71q0 154 67 235
t216 81q78 0 133 -23t85 -68t43 -101t13 -130v-856h-176zM406 356q0 70 -16.5 100.5t-57.5 30.5q-42 0 -58 -34t-16 -121v-8q0 -79 16 -111.5t58 -32.5q35 0 54.5 26.5t19.5 104.5v45zM66 1305v165h536v-165h-536z" />
    <glyph glyph-name="Abreve" unicode="&#x102;" horiz-adv-x="743" 
d="M528 0l-41 348h-231l-41 -348h-209l211 1569h307l213 -1569h-209zM371 1329l-92 -782h184zM610 1944q-9 -254 -239 -254q-237 0 -240 254h115q4 -109 125 -109q65 0 92.5 30t32.5 79h114z" />
    <glyph glyph-name="abreve" unicode="&#x103;" horiz-adv-x="677" 
d="M434 0l-18 96q-13 -23 -25 -39t-34 -34.5t-55 -28.5t-75 -10q-33 0 -56 6.5t-47 28.5t-38.5 60t-23.5 104t-9 159v33q0 168 43.5 237.5t134.5 69.5q35 0 64 -8t50.5 -25t33 -29t27.5 -32v239q0 87 -16 121.5t-58 34.5t-58 -34.5t-16 -121.5v-36h-205v71q0 154 67 235
t216 81q78 0 133 -23t85 -68t43 -101t13 -130v-856h-176zM406 356q0 70 -16.5 100.5t-57.5 30.5q-42 0 -58 -34t-16 -121v-8q0 -79 16 -111.5t58 -32.5q35 0 54.5 26.5t19.5 104.5v45zM575 1536q-9 -254 -239 -254q-237 0 -240 254h115q4 -109 125 -109q65 0 92.5 30
t32.5 79h114z" />
    <glyph glyph-name="Aogonek" unicode="&#x104;" horiz-adv-x="743" 
d="M690 -426q-114 6 -186 71t-72 154q0 107 98 178l-45 371h-229l-41 -348h-209l211 1569h307l213 -1569q-61 -37 -92 -83.5t-31 -92.5q0 -49 38 -87.5t110 -55.5zM371 1329l-92 -782h184z" />
    <glyph glyph-name="aogonek" unicode="&#x105;" horiz-adv-x="677" 
d="M567 -426q-114 6 -186 71t-72 154q0 125 127 199l-20 98q-13 -23 -25 -39t-34 -34.5t-55 -28.5t-75 -10q-33 0 -56 6.5t-47 28.5t-38.5 60t-23.5 104t-9 159v33q0 168 43.5 237.5t134.5 69.5q35 0 64 -8t50.5 -25t33 -29t27.5 -32v239q0 87 -16 121.5t-58 34.5t-58 -34.5
t-16 -121.5v-36h-205v71q0 154 67 235t216 81q78 0 133 -23t85 -68t43 -101t13 -130v-856q-58 -37 -88 -83.5t-30 -92.5q0 -49 37.5 -87.5t109.5 -55.5zM406 356q0 70 -16.5 100.5t-57.5 30.5q-42 0 -58 -34t-16 -121v-8q0 -79 16 -111.5t58 -32.5q35 0 54.5 26.5
t19.5 104.5v45z" />
    <glyph glyph-name="Cacute" unicode="&#x106;" horiz-adv-x="772" 
d="M719 301q0 -86 -25.5 -150.5t-71 -102.5t-102 -56.5t-123.5 -18.5t-124.5 19t-103 57.5t-71.5 103t-26 148.5v967q0 165 91 246t240 81q51 0 96 -9.5t86 -32.5t70 -58t46.5 -89.5t17.5 -123.5v-260h-209v219q0 80 -33.5 118t-81.5 38t-81 -38t-33 -118v-913
q0 -80 33 -118t81 -38t81.5 38t33.5 118v196h209v-223zM283 1712l116 268h228l-195 -268h-149z" />
    <glyph glyph-name="cacute" unicode="&#x107;" horiz-adv-x="665" 
d="M618 311q0 -171 -67 -249t-209 -78q-146 0 -213.5 79.5t-67.5 247.5v539q0 168 67.5 248t213.5 80q142 0 209 -78.5t67 -249.5v-115h-204v92q0 87 -16 121.5t-58 34.5t-58 -34.5t-16 -121.5v-491q0 -87 16 -121.5t58 -34.5t58 34.5t16 121.5v119h204v-144zM223 1305
l117 268h227l-194 -268h-150z" />
    <glyph glyph-name="Ccircumflex" unicode="&#x108;" horiz-adv-x="772" 
d="M719 301q0 -86 -25.5 -150.5t-71 -102.5t-102 -56.5t-123.5 -18.5t-124.5 19t-103 57.5t-71.5 103t-26 148.5v967q0 165 91 246t240 81q51 0 96 -9.5t86 -32.5t70 -58t46.5 -89.5t17.5 -123.5v-260h-209v219q0 80 -33.5 118t-81.5 38t-81 -38t-33 -118v-913
q0 -80 33 -118t81 -38t81.5 38t33.5 118v196h209v-223zM485 1712l-92 158l-82 -158h-166l154 289h184l162 -289h-160z" />
    <glyph glyph-name="ccircumflex" unicode="&#x109;" horiz-adv-x="665" 
d="M618 311q0 -171 -67 -249t-209 -78q-146 0 -213.5 79.5t-67.5 247.5v539q0 168 67.5 248t213.5 80q142 0 209 -78.5t67 -249.5v-115h-204v92q0 87 -16 121.5t-58 34.5t-58 -34.5t-16 -121.5v-491q0 -87 16 -121.5t58 -34.5t58 34.5t16 121.5v119h204v-144zM428 1305
l-92 157l-82 -157h-166l154 288h184l162 -288h-160z" />
    <glyph glyph-name="Cdotaccent" unicode="&#x10a;" horiz-adv-x="772" 
d="M719 301q0 -86 -25.5 -150.5t-71 -102.5t-102 -56.5t-123.5 -18.5t-124.5 19t-103 57.5t-71.5 103t-26 148.5v967q0 165 91 246t240 81q51 0 96 -9.5t86 -32.5t70 -58t46.5 -89.5t17.5 -123.5v-260h-209v219q0 80 -33.5 118t-81.5 38t-81 -38t-33 -118v-913
q0 -80 33 -118t81 -38t81.5 38t33.5 118v196h209v-223zM395 1702q-51 0 -87 35t-36 88q0 50 36.5 85.5t86.5 35.5q51 0 86 -35t35 -86q0 -53 -35 -88t-86 -35z" />
    <glyph glyph-name="cdotaccent" unicode="&#x10b;" horiz-adv-x="665" 
d="M618 311q0 -171 -67 -249t-209 -78q-146 0 -213.5 79.5t-67.5 247.5v539q0 168 67.5 248t213.5 80q142 0 209 -78.5t67 -249.5v-115h-204v92q0 87 -16 121.5t-58 34.5t-58 -34.5t-16 -121.5v-491q0 -87 16 -121.5t58 -34.5t58 34.5t16 121.5v119h204v-144zM340 1294
q-51 0 -87 35t-36 88q0 50 36.5 85.5t86.5 35.5q51 0 86 -35t35 -86q0 -53 -34.5 -88t-86.5 -35z" />
    <glyph glyph-name="Ccaron" unicode="&#x10c;" horiz-adv-x="772" 
d="M719 301q0 -86 -25.5 -150.5t-71 -102.5t-102 -56.5t-123.5 -18.5t-124.5 19t-103 57.5t-71.5 103t-26 148.5v967q0 165 91 246t240 81q51 0 96 -9.5t86 -32.5t70 -58t46.5 -89.5t17.5 -123.5v-260h-209v219q0 80 -33.5 118t-81.5 38t-81 -38t-33 -118v-913
q0 -80 33 -118t81 -38t81.5 38t33.5 118v196h209v-223zM305 1712l-162 289h160l92 -158l82 158h166l-154 -289h-184z" />
    <glyph glyph-name="ccaron" unicode="&#x10d;" horiz-adv-x="665" 
d="M618 311q0 -171 -67 -249t-209 -78q-146 0 -213.5 79.5t-67.5 247.5v539q0 168 67.5 248t213.5 80q142 0 209 -78.5t67 -249.5v-115h-204v92q0 87 -16 121.5t-58 34.5t-58 -34.5t-16 -121.5v-491q0 -87 16 -121.5t58 -34.5t58 34.5t16 121.5v119h204v-144zM250 1305
l-162 288h160l92 -157l82 157h166l-154 -288h-184z" />
    <glyph glyph-name="Dcaron" unicode="&#x10e;" horiz-adv-x="790" 
d="M82 0v1569h352q128 0 206.5 -80t78.5 -248v-913q0 -168 -78.5 -248t-206.5 -80h-352zM510 1214q0 85 -27 120.5t-88 35.5h-104v-1171h104q61 0 88 35t27 120v860zM289 1712l-162 289h160l92 -158l82 158h166l-154 -289h-184z" />
    <glyph glyph-name="dcaron" unicode="&#x10f;" horiz-adv-x="815" 
d="M662 1102l71 467h232l-152 -467h-151zM444 0l-18 94q-14 -22 -26 -36.5t-34 -34t-54.5 -29.5t-73.5 -10q-102 0 -138.5 73t-36.5 246v555q0 173 37.5 246.5t139.5 73.5q39 0 69 -9t51 -26.5t31.5 -30t24.5 -33.5v490h205v-1569h-177zM416 827q0 87 -16 121.5t-58 34.5
t-58 -34.5t-16 -121.5v-493q0 -87 16 -121.5t58 -34.5t58 34.5t16 121.5v493z" />
    <glyph glyph-name="Dcroat" unicode="&#x110;" horiz-adv-x="794" 
d="M86 0v694h-88v195h88v680h352q128 0 206.5 -80t78.5 -248v-913q0 -168 -78.5 -248t-206.5 -80h-352zM514 1214q0 85 -27 120.5t-88 35.5h-104v-481h111v-195h-111v-495h104q61 0 88 35t27 120v860z" />
    <glyph glyph-name="dcroat" unicode="&#x111;" horiz-adv-x="690" 
d="M444 0l-18 94q-14 -22 -26 -36.5t-34 -34t-54.5 -29.5t-73.5 -10q-102 0 -138.5 73t-36.5 246v555q0 173 37.5 246.5t139.5 73.5q39 0 69 -9t51 -26.5t31.5 -30t24.5 -33.5v236h-236v145h236v109h205v-109h69v-145h-69v-1315h-177zM416 827q0 87 -16 121.5t-58 34.5
t-58 -34.5t-16 -121.5v-493q0 -87 16 -121.5t58 -34.5t58 34.5t16 121.5v493z" />
    <glyph glyph-name="Emacron" unicode="&#x112;" horiz-adv-x="698" 
d="M82 0v1569h561v-199h-352v-479h338v-199h-338v-493h352v-199h-561zM88 1712v166h537v-166h-537z" />
    <glyph glyph-name="emacron" unicode="&#x113;" horiz-adv-x="669" 
d="M618 311q0 -171 -67 -249t-209 -78q-146 0 -213.5 79.5t-67.5 247.5v539q0 168 67.5 248t213.5 80q142 0 209 -78.5t67 -249.5v-356h-352v-158q0 -87 16 -121.5t58 -34.5t58 34.5t16 121.5v47h204v-72zM414 827q0 87 -16 121.5t-58 34.5t-58 -34.5t-16 -121.5v-141h148
v141zM70 1305v165h536v-165h-536z" />
    <glyph glyph-name="Ebreve" unicode="&#x114;" horiz-adv-x="698" 
d="M82 0v1569h561v-199h-352v-479h338v-199h-338v-493h352v-199h-561zM606 1944q-9 -254 -239 -254q-237 0 -240 254h115q4 -109 125 -109q65 0 92.5 30t32.5 79h114z" />
    <glyph glyph-name="ebreve" unicode="&#x115;" horiz-adv-x="669" 
d="M618 311q0 -171 -67 -249t-209 -78q-146 0 -213.5 79.5t-67.5 247.5v539q0 168 67.5 248t213.5 80q142 0 209 -78.5t67 -249.5v-356h-352v-158q0 -87 16 -121.5t58 -34.5t58 34.5t16 121.5v47h204v-72zM414 827q0 87 -16 121.5t-58 34.5t-58 -34.5t-16 -121.5v-141h148
v141zM578 1536q-9 -254 -240 -254q-237 0 -240 254h115q4 -109 125 -109q65 0 92.5 30t32.5 79h115z" />
    <glyph glyph-name="Edotaccent" unicode="&#x116;" horiz-adv-x="698" 
d="M82 0v1569h561v-199h-352v-479h338v-199h-338v-493h352v-199h-561zM373 1702q-51 0 -87 35t-36 88q0 50 36.5 85.5t86.5 35.5q51 0 86 -35t35 -86q0 -53 -35 -88t-86 -35z" />
    <glyph glyph-name="edotaccent" unicode="&#x117;" horiz-adv-x="669" 
d="M618 311q0 -171 -67 -249t-209 -78q-146 0 -213.5 79.5t-67.5 247.5v539q0 168 67.5 248t213.5 80q142 0 209 -78.5t67 -249.5v-356h-352v-158q0 -87 16 -121.5t58 -34.5t58 34.5t16 121.5v47h204v-72zM414 827q0 87 -16 121.5t-58 34.5t-58 -34.5t-16 -121.5v-141h148
v141zM340 1294q-51 0 -87 35t-36 88q0 50 36.5 85.5t86.5 35.5q51 0 86 -35t35 -86q0 -53 -34.5 -88t-86.5 -35z" />
    <glyph glyph-name="Eogonek" unicode="&#x118;" horiz-adv-x="698" 
d="M532 -426q-114 6 -186 71t-72 154q0 58 33.5 111t100.5 90h-326v1569h561v-199h-352v-479h338v-199h-338v-493h352v-199h-68q-58 -37 -88 -83.5t-30 -92.5q0 -49 37.5 -87.5t109.5 -55.5z" />
    <glyph glyph-name="eogonek" unicode="&#x119;" horiz-adv-x="669" 
d="M459 -406q-114 6 -186 71.5t-72 154.5q0 96 84 168q-116 13 -170 91.5t-54 231.5v539q0 168 67.5 248t213.5 80q142 0 209 -78.5t67 -249.5v-356h-352v-158q0 -87 16 -121.5t58 -34.5t58 34.5t16 121.5v47h204v-72q0 -220 -116 -291q-58 -37 -88.5 -83.5t-30.5 -92.5
q0 -49 37.5 -87.5t109.5 -55.5zM414 827q0 87 -16 121.5t-58 34.5t-58 -34.5t-16 -121.5v-141h148v141z" />
    <glyph glyph-name="Ecaron" unicode="&#x11a;" horiz-adv-x="698" 
d="M82 0v1569h561v-199h-352v-479h338v-199h-338v-493h352v-199h-561zM279 1712l-162 289h159l93 -158l82 158h165l-153 -289h-184z" />
    <glyph glyph-name="ecaron" unicode="&#x11b;" horiz-adv-x="669" 
d="M618 311q0 -171 -67 -249t-209 -78q-146 0 -213.5 79.5t-67.5 247.5v539q0 168 67.5 248t213.5 80q142 0 209 -78.5t67 -249.5v-356h-352v-158q0 -87 16 -121.5t58 -34.5t58 34.5t16 121.5v47h204v-72zM414 827q0 87 -16 121.5t-58 34.5t-58 -34.5t-16 -121.5v-141h148
v141zM250 1305l-162 288h160l92 -157l82 157h166l-154 -288h-184z" />
    <glyph glyph-name="Gcircumflex" unicode="&#x11c;" horiz-adv-x="798" 
d="M530 604h-139v199h348v-502q0 -167 -92.5 -247.5t-238.5 -80.5q-149 0 -242.5 81.5t-93.5 246.5v967q0 165 92 246t244 81q153 0 242 -81t89 -246v-244h-209v217q0 81 -34 118.5t-90 37.5t-90.5 -37.5t-34.5 -118.5v-913q0 -81 34.5 -118.5t90.5 -37.5t90 37.5t34 118.5
v276zM496 1712l-93 158l-81 -158h-166l153 289h185l161 -289h-159z" />
    <glyph glyph-name="gcircumflex" unicode="&#x11d;" horiz-adv-x="684" 
d="M618 -106q0 -162 -74 -235t-216 -73q-150 0 -218.5 78.5t-68.5 249.5v102q0 158 63 240q-2 6 -10 19t-12 26t-4 31q0 33 17 62t63 69q-97 83 -97 256v131q0 170 68.5 249t216.5 79q93 0 146 -35h188v-117l-96 4q34 -52 34 -160v-137q0 -171 -68 -246t-218 -75
q-45 0 -56 4q-24 -21 -24 -37t16 -25t35.5 -10.5t54.5 -1.5q142 -1 201 -86t59 -264v-98zM414 827q0 87 -16 121.5t-58 34.5t-58 -34.5t-16 -121.5v-65q0 -87 16 -121.5t58 -34.5t58 34.5t16 121.5v65zM414 -29q0 107 -13.5 141.5t-70.5 34.5q-46 0 -65 -28t-19 -107v-75
q0 -89 20 -122.5t68 -33.5q44 0 62 28t18 111v51zM434 1305l-92 157l-82 -157h-166l154 288h184l162 -288h-160z" />
    <glyph glyph-name="Gbreve" unicode="&#x11e;" horiz-adv-x="798" 
d="M530 604h-139v199h348v-502q0 -167 -92.5 -247.5t-238.5 -80.5q-149 0 -242.5 81.5t-93.5 246.5v967q0 165 92 246t244 81q153 0 242 -81t89 -246v-244h-209v217q0 81 -34 118.5t-90 37.5t-90.5 -37.5t-34.5 -118.5v-913q0 -81 34.5 -118.5t90.5 -37.5t90 37.5t34 118.5
v276zM645 1944q-9 -254 -239 -254q-237 0 -240 254h115q4 -109 125 -109q65 0 92 29.5t32 79.5h115z" />
    <glyph glyph-name="gbreve" unicode="&#x11f;" horiz-adv-x="684" 
d="M618 -106q0 -162 -74 -235t-216 -73q-150 0 -218.5 78.5t-68.5 249.5v102q0 158 63 240q-2 6 -10 19t-12 26t-4 31q0 33 17 62t63 69q-97 83 -97 256v131q0 170 68.5 249t216.5 79q93 0 146 -35h188v-117l-96 4q34 -52 34 -160v-137q0 -171 -68 -246t-218 -75
q-45 0 -56 4q-24 -21 -24 -37t16 -25t35.5 -10.5t54.5 -1.5q142 -1 201 -86t59 -264v-98zM414 827q0 87 -16 121.5t-58 34.5t-58 -34.5t-16 -121.5v-65q0 -87 16 -121.5t58 -34.5t58 34.5t16 121.5v65zM414 -29q0 107 -13.5 141.5t-70.5 34.5q-46 0 -65 -28t-19 -107v-75
q0 -89 20 -122.5t68 -33.5q44 0 62 28t18 111v51zM586 1536q-9 -254 -240 -254q-237 0 -240 254h115q4 -109 125 -109q65 0 92.5 30t32.5 79h115z" />
    <glyph glyph-name="Gdotaccent" unicode="&#x120;" horiz-adv-x="798" 
d="M530 604h-139v199h348v-502q0 -167 -92.5 -247.5t-238.5 -80.5q-149 0 -242.5 81.5t-93.5 246.5v967q0 165 92 246t244 81q153 0 242 -81t89 -246v-244h-209v217q0 81 -34 118.5t-90 37.5t-90.5 -37.5t-34.5 -118.5v-913q0 -81 34.5 -118.5t90.5 -37.5t90 37.5t34 118.5
v276zM406 1702q-51 0 -87 35t-36 88q0 50 36.5 85.5t86.5 35.5q51 0 85.5 -35t34.5 -86q0 -54 -34.5 -88.5t-85.5 -34.5z" />
    <glyph glyph-name="gdotaccent" unicode="&#x121;" horiz-adv-x="684" 
d="M618 -106q0 -162 -74 -235t-216 -73q-150 0 -218.5 78.5t-68.5 249.5v102q0 158 63 240q-2 6 -10 19t-12 26t-4 31q0 33 17 62t63 69q-97 83 -97 256v131q0 170 68.5 249t216.5 79q93 0 146 -35h188v-117l-96 4q34 -52 34 -160v-137q0 -171 -68 -246t-218 -75
q-45 0 -56 4q-24 -21 -24 -37t16 -25t35.5 -10.5t54.5 -1.5q142 -1 201 -86t59 -264v-98zM414 827q0 87 -16 121.5t-58 34.5t-58 -34.5t-16 -121.5v-65q0 -87 16 -121.5t58 -34.5t58 34.5t16 121.5v65zM414 -29q0 107 -13.5 141.5t-70.5 34.5q-46 0 -65 -28t-19 -107v-75
q0 -89 20 -122.5t68 -33.5q44 0 62 28t18 111v51zM346 1294q-51 0 -87 35t-36 88q0 50 36.5 85.5t86.5 35.5q51 0 86 -35t35 -86q0 -53 -34.5 -88t-86.5 -35z" />
    <glyph glyph-name="Gcommaaccent" unicode="&#x122;" horiz-adv-x="798" 
d="M530 604h-139v199h348v-502q0 -167 -92.5 -247.5t-238.5 -80.5q-149 0 -242.5 81.5t-93.5 246.5v967q0 165 92 246t244 81q153 0 242 -81t89 -246v-244h-209v217q0 81 -34 118.5t-90 37.5t-90.5 -37.5t-34.5 -118.5v-913q0 -81 34.5 -118.5t90.5 -37.5t90 37.5t34 118.5
v276zM240 -422l108 320h217l-170 -320h-155z" />
    <glyph glyph-name="gcommaaccent" unicode="&#x123;" horiz-adv-x="684" 
d="M618 -106q0 -162 -74 -235t-216 -73q-150 0 -218.5 78.5t-68.5 249.5v102q0 158 63 240q-2 6 -10 19t-12 26t-4 31q0 33 17 62t63 69q-97 83 -97 256v131q0 170 68.5 249t216.5 79q93 0 146 -35h188v-117l-96 4q34 -52 34 -160v-137q0 -171 -68 -246t-218 -75
q-45 0 -56 4q-24 -21 -24 -37t16 -25t35.5 -10.5t54.5 -1.5q142 -1 201 -86t59 -264v-98zM414 827q0 87 -16 121.5t-58 34.5t-58 -34.5t-16 -121.5v-65q0 -87 16 -121.5t58 -34.5t58 34.5t16 121.5v65zM414 -29q0 107 -13.5 141.5t-70.5 34.5q-46 0 -65 -28t-19 -107v-75
q0 -89 20 -122.5t68 -33.5q44 0 62 28t18 111v51zM549 1624l-109 -319h-217l170 319h156z" />
    <glyph glyph-name="Hcircumflex" unicode="&#x124;" horiz-adv-x="811" 
d="M520 0v692h-229v-692h-209v1569h209v-678h229v678h209v-1569h-209zM496 1712l-93 158l-81 -158h-166l153 289h185l161 -289h-159z" />
    <glyph glyph-name="hcircumflex" unicode="&#x125;" 
d="M422 0v827q0 87 -16 121.5t-58 34.5t-58 -34.5t-16 -121.5v-827h-204v1569h204v-490q19 28 34.5 45.5t54 35.5t88.5 18q104 0 140 -72.5t36 -247.5v-858h-205zM264 1675l-92 158l-82 -158h-166l154 289h184l162 -289h-160z" />
    <glyph glyph-name="Hbar" unicode="&#x126;" horiz-adv-x="815" 
d="M522 0v692h-229v-692h-209v1180h-82v166h82v223h209v-223h229v223h209v-223h82v-166h-82v-1180h-209zM522 1180h-229v-289h229v289z" />
    <glyph glyph-name="hbar" unicode="&#x127;" 
d="M422 0v827q0 87 -16 121.5t-58 34.5t-58 -34.5t-16 -121.5v-827h-204v1315h-70v145h70v109h204v-109h236v-145h-236v-236q19 28 34.5 45.5t54 35.5t88.5 18q104 0 140 -72.5t36 -247.5v-858h-205z" />
    <glyph glyph-name="Itilde" unicode="&#x128;" horiz-adv-x="372" 
d="M82 0v1569h209v-1569h-209zM438 1907q-5 -88 -41 -141.5t-106 -53.5q-34 0 -87.5 19.5t-82.5 19.5q-15 0 -23.5 -2t-17.5 -11.5t-12 -27.5h-134q5 88 41.5 141.5t106.5 53.5q34 0 87.5 -19.5t82.5 -19.5q13 0 21 1.5t18.5 11t13.5 28.5h133z" />
    <glyph glyph-name="itilde" unicode="&#x129;" horiz-adv-x="344" 
d="M70 0v1161h204v-1161h-204zM424 1499q-5 -87 -41.5 -140.5t-106.5 -53.5q-34 0 -87.5 19t-82.5 19q-15 0 -23.5 -1.5t-17.5 -11t-12 -27.5h-133q5 87 41.5 140.5t106.5 53.5q34 0 87.5 -19.5t82.5 -19.5q13 0 21 1.5t18.5 11t13.5 28.5h133z" />
    <glyph glyph-name="Imacron" unicode="&#x12a;" horiz-adv-x="372" 
d="M82 0v1569h209v-1569h-209zM-82 1712v166h537v-166h-537z" />
    <glyph glyph-name="imacron" unicode="&#x12b;" horiz-adv-x="344" 
d="M70 0v1161h204v-1161h-204zM-96 1305v165h536v-165h-536z" />
    <glyph glyph-name="Ibreve" unicode="&#x12c;" horiz-adv-x="372" 
d="M82 0v1569h209v-1569h-209zM426 1944q-9 -254 -240 -254q-236 0 -239 254h114q4 -109 125 -109q65 0 92.5 30t32.5 79h115z" />
    <glyph glyph-name="ibreve" unicode="&#x12d;" horiz-adv-x="344" 
d="M70 0v1161h204v-1161h-204zM412 1536q-9 -254 -240 -254q-237 0 -240 254h115q4 -109 125 -109q65 0 92.5 30t32.5 79h115z" />
    <glyph glyph-name="Iogonek" unicode="&#x12e;" horiz-adv-x="372" 
d="M248 -426q-114 6 -186 71t-72 154q0 102 92 174v1596h209v-1569q-58 -37 -88.5 -83.5t-30.5 -92.5q0 -49 37.5 -87.5t109.5 -55.5z" />
    <glyph glyph-name="iogonek" unicode="&#x12f;" horiz-adv-x="344" 
d="M229 -426q-114 6 -186 71t-72 154q0 107 99 178v1184h204v-1161q-58 -37 -89 -83.5t-31 -92.5q0 -49 37.5 -87.5t109.5 -55.5zM172 1280q-54 0 -91.5 37.5t-37.5 91.5t37.5 91.5t91.5 37.5t91.5 -37.5t37.5 -91.5t-37.5 -91.5t-91.5 -37.5z" />
    <glyph glyph-name="Idotaccent" unicode="&#x130;" horiz-adv-x="372" 
d="M82 0v1569h209v-1569h-209zM186 1702q-51 0 -87 35t-36 88q0 50 36.5 85.5t86.5 35.5q51 0 86 -35t35 -86q0 -53 -34.5 -88t-86.5 -35z" />
    <glyph glyph-name="dotlessi" unicode="&#x131;" horiz-adv-x="344" 
d="M70 0v1161h204v-1161h-204z" />
    <glyph glyph-name="IJ" unicode="&#x132;" horiz-adv-x="745" 
d="M82 0v1569h209v-1569h-209zM334 -393v198h6q48 0 81.5 38t33.5 118v1608h209v-1635q0 -86 -26 -150.5t-71.5 -102t-102 -56t-124.5 -18.5h-6z" />
    <glyph glyph-name="ij" unicode="&#x133;" horiz-adv-x="688" 
d="M70 0v1161h204v-1161h-204zM172 1280q-54 0 -91.5 37.5t-37.5 91.5t37.5 91.5t91.5 37.5t91.5 -37.5t37.5 -91.5t-37.5 -91.5t-91.5 -37.5zM279 -252q14 -2 32 -2q62 0 82.5 36.5t20.5 121.5v1257h204v-1280q0 -166 -56.5 -236.5t-192.5 -70.5q-45 0 -90 10v164z
M516 1280q-54 0 -91.5 37.5t-37.5 91.5t37.5 91.5t91.5 37.5t91.5 -37.5t37.5 -91.5t-37.5 -91.5t-91.5 -37.5z" />
    <glyph glyph-name="Jcircumflex" unicode="&#x134;" horiz-adv-x="372" 
d="M-39 -393v198h6q48 0 81.5 38t33.5 118v1608h209v-1635q0 -86 -26 -150.5t-71.5 -102t-102 -56t-124.5 -18.5h-6zM276 1712l-92 158l-82 -158h-165l153 289h184l162 -289h-160z" />
    <glyph glyph-name="jcircumflex" unicode="&#x135;" horiz-adv-x="344" 
d="M-66 -252q14 -2 33 -2q62 0 82.5 36.5t20.5 121.5v1257h204v-1280q0 -166 -56.5 -236.5t-192.5 -70.5q-46 0 -91 10v164zM262 1305l-92 157l-82 -157h-166l154 288h184l162 -288h-160z" />
    <glyph glyph-name="Kcommaaccent" unicode="&#x136;" horiz-adv-x="772" 
d="M582 0l-289 784l250 785h209l-238 -778l277 -791h-209zM82 0v1569h209v-1569h-209zM240 -422l108 320h217l-170 -320h-155z" />
    <glyph glyph-name="kcommaaccent" unicode="&#x137;" 
d="M485 0l-209 594l209 567h209l-200 -561l198 -600h-207zM70 0v1569h204v-1569h-204zM197 -422l108 320h217l-170 -320h-155z" />
    <glyph glyph-name="kgreenlandic" unicode="&#x138;" 
d="M485 0l-209 594l209 567h209l-200 -561l198 -600h-207zM70 0v1161h204v-1161h-204z" />
    <glyph glyph-name="Lacute" unicode="&#x139;" horiz-adv-x="555" 
d="M82 0v1569h209v-1370h250v-199h-459zM100 1712l117 268h227l-194 -268h-150z" />
    <glyph glyph-name="lacute" unicode="&#x13a;" horiz-adv-x="348" 
d="M72 0v1569h204v-1569h-204zM82 1714l117 268h227l-195 -268h-149z" />
    <glyph glyph-name="Lcommaaccent" unicode="&#x13b;" horiz-adv-x="555" 
d="M82 0v1569h209v-1370h250v-199h-459zM131 -422l109 320h217l-170 -320h-156z" />
    <glyph glyph-name="lcommaaccent" unicode="&#x13c;" horiz-adv-x="348" 
d="M72 0v1569h204v-1569h-204zM12 -422l109 320h217l-170 -320h-156z" />
    <glyph glyph-name="Lcaron" unicode="&#x13d;" horiz-adv-x="673" 
d="M385 1102l72 467h231l-151 -467h-152zM82 0v1569h209v-1370h250v-199h-459z" />
    <glyph glyph-name="lcaron" unicode="&#x13e;" horiz-adv-x="471" 
d="M317 1102l72 467h232l-152 -467h-152zM72 0v1569h204v-1569h-204z" />
    <glyph glyph-name="Ldot" unicode="&#x13f;" horiz-adv-x="649" 
d="M82 0v1569h209v-1370h250v-199h-459zM504 616q-54 0 -91.5 37.5t-37.5 91.5t37.5 91.5t91.5 37.5t91.5 -37.5t37.5 -91.5t-37.5 -91.5t-91.5 -37.5z" />
    <glyph glyph-name="ldot" unicode="&#x140;" horiz-adv-x="565" 
d="M72 0v1569h204v-1569h-204zM457 535q-54 0 -91.5 37.5t-37.5 91.5t37.5 91.5t91.5 37.5t91.5 -37.5t37.5 -91.5t-37.5 -91.5t-91.5 -37.5z" />
    <glyph glyph-name="Lslash" unicode="&#x141;" horiz-adv-x="632" 
d="M160 0v512l-82 -47l-92 164l174 96v844h209v-727l118 67l88 -164l-206 -116v-430h249v-199h-458z" />
    <glyph glyph-name="lslash" unicode="&#x142;" horiz-adv-x="507" 
d="M152 0v524l-66 -37l-92 164l158 86v832h204v-719l70 39l88 -164l-158 -88v-637h-204z" />
    <glyph glyph-name="Nacute" unicode="&#x143;" horiz-adv-x="917" 
d="M563 0l-276 1047l4 -1047h-209v1569h262l287 -1065l-4 1065h209v-1569h-273zM389 1712l117 268h227l-194 -268h-150z" />
    <glyph glyph-name="nacute" unicode="&#x144;" 
d="M422 0v827q0 87 -16 121.5t-58 34.5t-58 -34.5t-16 -121.5v-827h-204v1161h176l18 -94q14 22 26 36.5t34.5 34t55 30t73.5 10.5q102 0 138 -73t36 -247v-858h-205zM229 1305l117 268h227l-194 -268h-150z" />
    <glyph glyph-name="Ncommaaccent" unicode="&#x145;" horiz-adv-x="917" 
d="M563 0l-276 1047l4 -1047h-209v1569h262l287 -1065l-4 1065h209v-1569h-273zM295 -422l108 320h218l-170 -320h-156z" />
    <glyph glyph-name="ncommaaccent" unicode="&#x146;" 
d="M422 0v827q0 87 -16 121.5t-58 34.5t-58 -34.5t-16 -121.5v-827h-204v1161h176l18 -94q14 22 26 36.5t34.5 34t55 30t73.5 10.5q102 0 138 -73t36 -247v-858h-205zM182 -422l109 320h217l-170 -320h-156z" />
    <glyph glyph-name="Ncaron" unicode="&#x147;" horiz-adv-x="917" 
d="M563 0l-276 1047l4 -1047h-209v1569h262l287 -1065l-4 1065h209v-1569h-273zM389 1712l-162 289h160l92 -158l82 158h166l-154 -289h-184z" />
    <glyph glyph-name="ncaron" unicode="&#x148;" 
d="M422 0v827q0 87 -16 121.5t-58 34.5t-58 -34.5t-16 -121.5v-827h-204v1161h176l18 -94q14 22 26 36.5t34.5 34t55 30t73.5 10.5q102 0 138 -73t36 -247v-858h-205zM256 1305l-162 288h160l92 -157l82 157h166l-154 -288h-184z" />
    <glyph glyph-name="Eng" unicode="&#x14a;" horiz-adv-x="917" 
d="M506 -408v199h6q48 0 81.5 38t33.5 118v71l-340 1029l4 -1047h-209v1569h262l287 -965l-4 965h209v-1649q0 -86 -26 -150.5t-71.5 -102.5t-102 -56.5t-124.5 -18.5h-6z" />
    <glyph glyph-name="eng" unicode="&#x14b;" 
d="M287 -272q14 -2 32 -2q62 0 82.5 36t20.5 121v944q0 87 -16 121.5t-58 34.5t-58 -34.5t-16 -121.5v-827h-204v1161h176l18 -94q14 22 26 36.5t34.5 34t55 30t73.5 10.5q102 0 138 -73t36 -247v-977q0 -166 -57 -236.5t-193 -70.5q-45 0 -90 10v144z" />
    <glyph glyph-name="Omacron" unicode="&#x14c;" horiz-adv-x="790" 
d="M72 1268q0 165 92 246t244 81q311 0 311 -327v-967q0 -86 -25.5 -150.5t-71 -102.5t-102 -56.5t-123.5 -18.5t-124.5 19t-103 57.5t-71.5 103t-26 148.5v967zM510 1241q0 80 -33.5 118t-81.5 38t-81 -38t-33 -118v-913q0 -80 33 -118t81 -38t81.5 38t33.5 118v913z
M127 1712v166h537v-166h-537z" />
    <glyph glyph-name="omacron" unicode="&#x14d;" horiz-adv-x="679" 
d="M618 311q0 -171 -67 -249t-209 -78q-146 0 -213.5 79.5t-67.5 247.5v539q0 168 67.5 248t213.5 80q142 0 209 -78.5t67 -249.5v-539zM414 827q0 87 -16 121.5t-58 34.5t-58 -34.5t-16 -121.5v-491q0 -87 16 -121.5t58 -34.5t58 34.5t16 121.5v491zM72 1305v165h536v-165
h-536z" />
    <glyph glyph-name="Obreve" unicode="&#x14e;" horiz-adv-x="790" 
d="M72 1268q0 165 92 246t244 81q311 0 311 -327v-967q0 -86 -25.5 -150.5t-71 -102.5t-102 -56.5t-123.5 -18.5t-124.5 19t-103 57.5t-71.5 103t-26 148.5v967zM510 1241q0 80 -33.5 118t-81.5 38t-81 -38t-33 -118v-913q0 -80 33 -118t81 -38t81.5 38t33.5 118v913z
M635 1944q-9 -254 -240 -254q-236 0 -239 254h114q4 -109 125 -109q65 0 92.5 30t32.5 79h115z" />
    <glyph glyph-name="obreve" unicode="&#x14f;" horiz-adv-x="679" 
d="M618 311q0 -171 -67 -249t-209 -78q-146 0 -213.5 79.5t-67.5 247.5v539q0 168 67.5 248t213.5 80q142 0 209 -78.5t67 -249.5v-539zM414 827q0 87 -16 121.5t-58 34.5t-58 -34.5t-16 -121.5v-491q0 -87 16 -121.5t58 -34.5t58 34.5t16 121.5v491zM580 1536
q-9 -254 -240 -254q-237 0 -240 254h115q4 -109 125 -109q65 0 92.5 30t32.5 79h115z" />
    <glyph glyph-name="Ohungarumlaut" unicode="&#x150;" horiz-adv-x="790" 
d="M72 1268q0 165 92 246t244 81q311 0 311 -327v-967q0 -86 -25.5 -150.5t-71 -102.5t-102 -56.5t-123.5 -18.5t-124.5 19t-103 57.5t-71.5 103t-26 148.5v967zM510 1241q0 80 -33.5 118t-81.5 38t-81 -38t-33 -118v-913q0 -80 33 -118t81 -38t81.5 38t33.5 118v913z
M147 1712l91 277h206l-127 -277h-170zM428 1712l90 277h207l-127 -277h-170z" />
    <glyph glyph-name="ohungarumlaut" unicode="&#x151;" horiz-adv-x="679" 
d="M618 311q0 -171 -67 -249t-209 -78q-146 0 -213.5 79.5t-67.5 247.5v539q0 168 67.5 248t213.5 80q142 0 209 -78.5t67 -249.5v-539zM414 827q0 87 -16 121.5t-58 34.5t-58 -34.5t-16 -121.5v-491q0 -87 16 -121.5t58 -34.5t58 34.5t16 121.5v491zM88 1305l90 276h207
l-127 -276h-170zM369 1305l90 276h207l-127 -276h-170z" />
    <glyph glyph-name="OE" unicode="&#x152;" horiz-adv-x="1126" 
d="M543 0q-65 -27 -146 -27q-67 0 -124.5 19t-103 57.5t-71.5 103t-26 148.5v967q0 165 92 246t244 81q79 0 149 -26h514v-199h-352v-479h338v-199h-338v-493h352v-199h-528zM510 1241q0 80 -33.5 118t-81.5 38t-81 -38t-33 -118v-913q0 -80 33 -118t81 -38q46 0 78.5 33
t36.5 106v930z" />
    <glyph glyph-name="oe" unicode="&#x153;" horiz-adv-x="1021" 
d="M971 311q0 -171 -66.5 -249t-208.5 -78q-118 0 -180 67q-56 -67 -176 -67q-142 0 -210.5 80.5t-68.5 246.5v539q0 166 68.5 247t210.5 81q119 0 176 -68q63 68 180 68q142 0 208.5 -78.5t66.5 -249.5v-356h-353v-183q0 -72 16.5 -101.5t57.5 -29.5q42 0 58 34.5t16 121.5
v47h205v-72zM414 852q0 72 -16.5 101.5t-57.5 29.5q-42 0 -58 -34.5t-16 -121.5v-491q0 -87 16 -121.5t58 -34.5q41 0 56.5 29t17.5 102v541zM766 827q0 87 -16 121.5t-58 34.5q-41 0 -57.5 -30t-16.5 -103v-164h148v141z" />
    <glyph glyph-name="Racute" unicode="&#x154;" horiz-adv-x="770" 
d="M551 0l-180 645h-80v-645h-209v1569h348q128 0 208.5 -80.5t80.5 -247.5v-252q0 -122 -34 -192.5t-118 -106.5l193 -690h-209zM510 1214q0 85 -27 120.5t-88 35.5h-104v-526h104q61 0 88 35t27 120v215zM268 1712l117 268h227l-194 -268h-150z" />
    <glyph glyph-name="racute" unicode="&#x155;" horiz-adv-x="540" 
d="M70 0v1161h178l16 -94q16 38 62 73.5t112 35.5q63 0 99 -25l-19 -211q-72 29 -123 29q-121 0 -121 -185v-784h-204zM168 1305l117 268h227l-195 -268h-149z" />
    <glyph glyph-name="Rcommaaccent" unicode="&#x156;" horiz-adv-x="770" 
d="M551 0l-180 645h-80v-645h-209v1569h348q128 0 208.5 -80.5t80.5 -247.5v-252q0 -122 -34 -192.5t-118 -106.5l193 -690h-209zM510 1214q0 85 -27 120.5t-88 35.5h-104v-526h104q61 0 88 35t27 120v215zM240 -422l108 320h217l-170 -320h-155z" />
    <glyph glyph-name="rcommaaccent" unicode="&#x157;" horiz-adv-x="540" 
d="M70 0v1161h178l16 -94q16 38 62 73.5t112 35.5q63 0 99 -25l-19 -211q-72 29 -123 29q-121 0 -121 -185v-784h-204zM41 -422l109 320h217l-170 -320h-156z" />
    <glyph glyph-name="Rcaron" unicode="&#x158;" horiz-adv-x="770" 
d="M551 0l-180 645h-80v-645h-209v1569h348q128 0 208.5 -80.5t80.5 -247.5v-252q0 -122 -34 -192.5t-118 -106.5l193 -690h-209zM510 1214q0 85 -27 120.5t-88 35.5h-104v-526h104q61 0 88 35t27 120v215zM289 1712l-162 289h160l92 -158l82 158h166l-154 -289h-184z" />
    <glyph glyph-name="rcaron" unicode="&#x159;" horiz-adv-x="540" 
d="M70 0v1161h178l16 -94q16 38 62 73.5t112 35.5q63 0 99 -25l-19 -211q-72 29 -123 29q-121 0 -121 -185v-784h-204zM199 1305l-162 288h160l92 -157l82 157h166l-154 -288h-184z" />
    <glyph glyph-name="Sacute" unicode="&#x15a;" horiz-adv-x="759" 
d="M702 301q0 -164 -87 -246t-236 -82q-148 0 -236 83t-88 245v223h209v-196q0 -80 33.5 -118t81.5 -38t81.5 38t33.5 118v129q0 35 -24 73t-63 73.5t-85.5 74t-93.5 82t-86 89.5t-63 104t-24 118v197q0 111 45.5 186.5t116.5 108t162 32.5q158 0 240.5 -78t82.5 -249v-246
h-208v219q0 80 -33.5 118t-81.5 38t-81.5 -38t-33.5 -118v-131q0 -48 24 -93t63 -81.5t85.5 -73t93 -75t85.5 -79.5t63 -95t24 -113v-199zM268 1712l117 268h227l-194 -268h-150z" />
    <glyph glyph-name="sacute" unicode="&#x15b;" horiz-adv-x="661" 
d="M246 334q0 -81 19 -118.5t67 -37.5q82 0 82 103q0 51 -20.5 92t-53.5 70.5t-72.5 57.5t-79.5 61.5t-73 74t-53.5 102.5t-20.5 140q0 299 295 299q148 0 215 -77.5t67 -250.5v-76h-204v53q0 88 -17 122t-65 34q-49 0 -66.5 -27.5t-17.5 -76.5q0 -56 20.5 -99.5t53 -72.5
t72 -56t79 -58t72 -69t53 -100t20.5 -141q0 -299 -290 -299q-148 0 -217.5 79t-69.5 244v76h205v-49zM209 1305l117 268h227l-195 -268h-149z" />
    <glyph glyph-name="Scircumflex" unicode="&#x15c;" horiz-adv-x="759" 
d="M702 301q0 -164 -87 -246t-236 -82q-148 0 -236 83t-88 245v223h209v-196q0 -80 33.5 -118t81.5 -38t81.5 38t33.5 118v129q0 35 -24 73t-63 73.5t-85.5 74t-93.5 82t-86 89.5t-63 104t-24 118v197q0 111 45.5 186.5t116.5 108t162 32.5q158 0 240.5 -78t82.5 -249v-246
h-208v219q0 80 -33.5 118t-81.5 38t-81.5 -38t-33.5 -118v-131q0 -48 24 -93t63 -81.5t85.5 -73t93 -75t85.5 -79.5t63 -95t24 -113v-199zM469 1712l-92 158l-82 -158h-166l154 289h184l162 -289h-160z" />
    <glyph glyph-name="scircumflex" unicode="&#x15d;" horiz-adv-x="661" 
d="M246 334q0 -81 19 -118.5t67 -37.5q82 0 82 103q0 51 -20.5 92t-53.5 70.5t-72.5 57.5t-79.5 61.5t-73 74t-53.5 102.5t-20.5 140q0 299 295 299q148 0 215 -77.5t67 -250.5v-76h-204v53q0 88 -17 122t-65 34q-49 0 -66.5 -27.5t-17.5 -76.5q0 -56 20.5 -99.5t53 -72.5
t72 -56t79 -58t72 -69t53 -100t20.5 -141q0 -299 -290 -299q-148 0 -217.5 79t-69.5 244v76h205v-49zM420 1305l-92 157l-82 -157h-166l153 288h185l162 -288h-160z" />
    <glyph glyph-name="Scedilla" unicode="&#x15e;" horiz-adv-x="759" 
d="M252 -246q32 -18 70 -18q36 0 57.5 19.5t21.5 45.5t-20 44t-64 18q-14 0 -20 -2l29 116q-128 14 -199.5 94.5t-71.5 229.5v223h209v-196q0 -80 33.5 -118t81.5 -38t81.5 38t33.5 118v129q0 35 -24 73t-63 73.5t-85.5 74t-93.5 82t-86 89.5t-63 104t-24 118v197
q0 111 45.5 186.5t116.5 108t162 32.5q158 0 240.5 -78t82.5 -249v-246h-208v219q0 80 -33.5 118t-81.5 38t-81.5 -38t-33.5 -118v-131q0 -48 24 -93t63 -81.5t85.5 -73t93 -75t85.5 -79.5t63 -95t24 -113v-199q0 -265 -231 -317l-20 -78q63 0 99 -39.5t36 -93.5
q0 -66 -53.5 -114t-155.5 -48q-88 0 -156 29z" />
    <glyph glyph-name="scedilla" unicode="&#x15f;" horiz-adv-x="659" 
d="M190 -246q31 -18 70 -18q37 0 58.5 19.5t21.5 45.5t-20 44t-64 18q-14 0 -20 -2l30 127q-117 13 -172 91.5t-55 227.5v76h205v-49q0 -81 19 -118.5t67 -37.5q82 0 82 103q0 51 -20.5 92t-53.5 70.5t-72.5 57.5t-79.5 61.5t-73 74t-53.5 102.5t-20.5 140q0 299 295 299
q148 0 215 -77.5t67 -250.5v-76h-204v53q0 88 -17 122t-65 34q-49 0 -66.5 -27.5t-17.5 -76.5q0 -56 20.5 -99.5t53 -72.5t72 -56t79 -58t72 -69t53 -100t20.5 -141q0 -246 -202 -291l-25 -86q63 0 99 -39.5t36 -93.5q0 -66 -53.5 -114t-155.5 -48q-87 0 -155 29z" />
    <glyph glyph-name="Scaron" unicode="&#x160;" horiz-adv-x="759" 
d="M702 301q0 -164 -87 -246t-236 -82q-148 0 -236 83t-88 245v223h209v-196q0 -80 33.5 -118t81.5 -38t81.5 38t33.5 118v129q0 35 -24 73t-63 73.5t-85.5 74t-93.5 82t-86 89.5t-63 104t-24 118v197q0 111 45.5 186.5t116.5 108t162 32.5q158 0 240.5 -78t82.5 -249v-246
h-208v219q0 80 -33.5 118t-81.5 38t-81.5 -38t-33.5 -118v-131q0 -48 24 -93t63 -81.5t85.5 -73t93 -75t85.5 -79.5t63 -95t24 -113v-199zM291 1712l-162 289h160l92 -158l82 158h166l-154 -289h-184z" />
    <glyph glyph-name="scaron" unicode="&#x161;" horiz-adv-x="661" 
d="M246 334q0 -81 19 -118.5t67 -37.5q82 0 82 103q0 51 -20.5 92t-53.5 70.5t-72.5 57.5t-79.5 61.5t-73 74t-53.5 102.5t-20.5 140q0 299 295 299q148 0 215 -77.5t67 -250.5v-76h-204v53q0 88 -17 122t-65 34q-49 0 -66.5 -27.5t-17.5 -76.5q0 -56 20.5 -99.5t53 -72.5
t72 -56t79 -58t72 -69t53 -100t20.5 -141q0 -299 -290 -299q-148 0 -217.5 79t-69.5 244v76h205v-49zM242 1305l-162 288h160l92 -157l82 157h166l-154 -288h-184z" />
    <glyph glyph-name="Tcommaaccent" unicode="&#x162;" horiz-adv-x="630" 
d="M211 0v1370h-195v199h598v-199h-194v-1370h-209zM152 -422l108 320h217l-170 -320h-155z" />
    <glyph glyph-name="tcommaaccent" unicode="&#x163;" horiz-adv-x="473" 
d="M449 -6q-52 -10 -82 -10q-142 0 -200 69.5t-58 237.5v680h-93v190h93v287h204v-287h133v-190h-133v-647q0 -83 19 -121.5t76 -38.5q13 0 41 4v-174zM111 -422l108 320h217l-170 -320h-155z" />
    <glyph glyph-name="Tcaron" unicode="&#x164;" horiz-adv-x="630" 
d="M211 0v1370h-195v199h598v-199h-194v-1370h-209zM227 1712l-161 289h159l92 -158l82 158h166l-153 -289h-185z" />
    <glyph glyph-name="tcaron" unicode="&#x165;" horiz-adv-x="473" 
d="M401 1272l72 364h232l-152 -364h-152zM449 -6q-52 -10 -82 -10q-142 0 -200 69.5t-58 237.5v680h-93v190h93v287h204v-287h133v-190h-133v-647q0 -83 19 -121.5t76 -38.5q13 0 41 4v-174z" />
    <glyph glyph-name="Tbar" unicode="&#x166;" horiz-adv-x="659" 
d="M225 0v715h-143v166h143v489h-194v199h598v-199h-195v-489h144v-166h-144v-715h-209z" />
    <glyph glyph-name="tbar" unicode="&#x167;" horiz-adv-x="475" 
d="M451 -6q-52 -10 -82 -10q-142 0 -200 69.5t-58 237.5v274h-86v166h86v240h-93v190h93v287h204v-287h134v-190h-134v-240h123v-166h-123v-241q0 -83 19 -121.5t76 -38.5q13 0 41 4v-174z" />
    <glyph glyph-name="Utilde" unicode="&#x168;" horiz-adv-x="802" 
d="M516 1569h209v-1268q0 -86 -25.5 -150.5t-71 -102.5t-102 -56.5t-123.5 -18.5t-124.5 19t-103 57.5t-71.5 103t-26 148.5v1268h209v-1241q0 -80 33 -118t81 -38t81.5 38t33.5 118v1241zM653 1907q-5 -88 -41 -141.5t-106 -53.5q-34 0 -87.5 19.5t-82.5 19.5
q-15 0 -23.5 -2t-17.5 -11.5t-12 -27.5h-133q5 88 41 141.5t106 53.5q34 0 87.5 -19.5t82.5 -19.5q13 0 21 1.5t18.5 11t13.5 28.5h133z" />
    <glyph glyph-name="utilde" unicode="&#x169;" 
d="M449 0l-19 94q-14 -22 -26 -36.5t-34 -34t-54.5 -29.5t-73.5 -10q-102 0 -138 72.5t-36 246.5v858h204v-827q0 -87 16 -121.5t58 -34.5t58 34.5t16 121.5v827h205v-1161h-176zM600 1499q-5 -88 -41 -141t-106 -53q-34 0 -87.5 19t-82.5 19q-15 0 -23.5 -1.5t-18 -11
t-12.5 -27.5h-133q5 87 41.5 140.5t106.5 53.5q34 0 87.5 -19.5t82.5 -19.5q13 0 21 1.5t18.5 11t13.5 28.5h133z" />
    <glyph glyph-name="Umacron" unicode="&#x16a;" horiz-adv-x="802" 
d="M516 1569h209v-1268q0 -86 -25.5 -150.5t-71 -102.5t-102 -56.5t-123.5 -18.5t-124.5 19t-103 57.5t-71.5 103t-26 148.5v1268h209v-1241q0 -80 33 -118t81 -38t81.5 38t33.5 118v1241zM133 1712v166h537v-166h-537z" />
    <glyph glyph-name="umacron" unicode="&#x16b;" 
d="M449 0l-19 94q-14 -22 -26 -36.5t-34 -34t-54.5 -29.5t-73.5 -10q-102 0 -138 72.5t-36 246.5v858h204v-827q0 -87 16 -121.5t58 -34.5t58 34.5t16 121.5v827h205v-1161h-176zM78 1305v165h536v-165h-536z" />
    <glyph glyph-name="Ubreve" unicode="&#x16c;" horiz-adv-x="802" 
d="M516 1569h209v-1268q0 -86 -25.5 -150.5t-71 -102.5t-102 -56.5t-123.5 -18.5t-124.5 19t-103 57.5t-71.5 103t-26 148.5v1268h209v-1241q0 -80 33 -118t81 -38t81.5 38t33.5 118v1241zM641 1944q-9 -254 -240 -254q-236 0 -239 254h114q4 -109 125 -109q65 0 92.5 30
t32.5 79h115z" />
    <glyph glyph-name="ubreve" unicode="&#x16d;" 
d="M449 0l-19 94q-14 -22 -26 -36.5t-34 -34t-54.5 -29.5t-73.5 -10q-102 0 -138 72.5t-36 246.5v858h204v-827q0 -87 16 -121.5t58 -34.5t58 34.5t16 121.5v827h205v-1161h-176zM586 1536q-9 -254 -240 -254q-237 0 -240 254h115q4 -109 125 -109q65 0 92.5 30t32.5 79h115
z" />
    <glyph glyph-name="Uring" unicode="&#x16e;" horiz-adv-x="802" 
d="M516 1569h209v-1268q0 -86 -25.5 -150.5t-71 -102.5t-102 -56.5t-123.5 -18.5t-124.5 19t-103 57.5t-71.5 103t-26 148.5v1268h209v-1241q0 -80 33 -118t81 -38t81.5 38t33.5 118v1241zM465 1847q0 29 -17.5 46.5t-46.5 17.5t-46 -17.5t-17 -46.5t17 -46t46 -17t46.5 17
t17.5 46zM401 1669q-75 0 -126.5 51.5t-51.5 126.5t51.5 126.5t126.5 51.5t127 -51.5t52 -126.5t-52 -126.5t-127 -51.5z" />
    <glyph glyph-name="uring" unicode="&#x16f;" 
d="M449 0l-19 94q-14 -22 -26 -36.5t-34 -34t-54.5 -29.5t-73.5 -10q-102 0 -138 72.5t-36 246.5v858h204v-827q0 -87 16 -121.5t58 -34.5t58 34.5t16 121.5v827h205v-1161h-176zM410 1440q0 29 -17.5 46t-46.5 17t-46 -17t-17 -46t17 -46.5t46 -17.5t46.5 17.5t17.5 46.5z
M346 1262q-75 0 -126.5 51.5t-51.5 126.5t51.5 126.5t126.5 51.5t126.5 -51.5t51.5 -126.5t-51.5 -126.5t-126.5 -51.5z" />
    <glyph glyph-name="Uhungarumlaut" unicode="&#x170;" horiz-adv-x="802" 
d="M516 1569h209v-1268q0 -86 -25.5 -150.5t-71 -102.5t-102 -56.5t-123.5 -18.5t-124.5 19t-103 57.5t-71.5 103t-26 148.5v1268h209v-1241q0 -80 33 -118t81 -38t81.5 38t33.5 118v1241zM154 1712l90 277h207l-127 -277h-170zM434 1712l90 277h207l-127 -277h-170z" />
    <glyph glyph-name="uhungarumlaut" unicode="&#x171;" 
d="M449 0l-19 94q-14 -22 -26 -36.5t-34 -34t-54.5 -29.5t-73.5 -10q-102 0 -138 72.5t-36 246.5v858h204v-827q0 -87 16 -121.5t58 -34.5t58 34.5t16 121.5v827h205v-1161h-176zM106 1305l91 276h206l-127 -276h-170zM387 1305l90 276h207l-127 -276h-170z" />
    <glyph glyph-name="Uogonek" unicode="&#x172;" horiz-adv-x="802" 
d="M508 -426q-114 6 -186 71t-72 154q0 107 96 178q-120 14 -194 95t-74 229v1268h209v-1241q0 -80 33 -118t81 -38t81.5 38t33.5 118v1241h209v-1268q0 -56 -11 -102.5t-26.5 -76t-40.5 -55.5t-44.5 -39.5t-47.5 -29.5q-123 -76 -123 -172q0 -52 37.5 -90t110.5 -55z" />
    <glyph glyph-name="uogonek" unicode="&#x173;" 
d="M580 -426q-114 6 -186 71t-72 154q0 125 127 199l-19 96q-14 -22 -26 -36.5t-34 -34t-54.5 -29.5t-73.5 -10q-102 0 -138 72.5t-36 246.5v858h204v-827q0 -87 16 -121.5t58 -34.5t58 34.5t16 121.5v827h205v-1161q-59 -37 -90 -84t-31 -92q0 -49 37.5 -87.5t109.5 -55.5z
" />
    <glyph glyph-name="Wcircumflex" unicode="&#x174;" horiz-adv-x="1251" 
d="M1061 0h-297l-139 1266l-138 -1266h-297l-172 1569h209l117 -1213l135 1213h293l135 -1213l117 1213h209zM715 1712l-92 158l-82 -158h-166l153 289h185l161 -289h-159z" />
    <glyph glyph-name="wcircumflex" unicode="&#x175;" horiz-adv-x="1052" 
d="M610 0l-84 834l-84 -834h-268l-158 1161h213l93 -885l94 885h221l94 -885l92 885h213l-157 -1161h-269zM614 1305l-92 157l-82 -157h-166l154 288h184l162 -288h-160z" />
    <glyph glyph-name="Ycircumflex" unicode="&#x176;" horiz-adv-x="731" 
d="M260 0v545l-260 1024h211l154 -711l157 711h211l-264 -1022v-547h-209zM457 1712l-92 158l-82 -158h-166l153 289h185l161 -289h-159z" />
    <glyph glyph-name="ycircumflex" unicode="&#x177;" horiz-adv-x="647" 
d="M184 -410l62 332l-244 1239h213l117 -823l90 823h213l-238 -1571h-213zM408 1305l-93 157l-82 -157h-165l153 288h185l161 -288h-159z" />
    <glyph glyph-name="Ydieresis" unicode="&#x178;" horiz-adv-x="731" 
d="M260 0v545l-260 1024h211l154 -711l157 711h211l-264 -1022v-547h-209zM193 1692q-51 0 -87 35t-36 88q0 50 36.5 85t86.5 35q51 0 85.5 -34.5t34.5 -85.5q0 -54 -34.5 -88.5t-85.5 -34.5zM541 1692q-50 0 -85.5 35t-35.5 88q0 51 35.5 85.5t85.5 34.5q54 0 88.5 -34.5
t34.5 -85.5q0 -54 -34.5 -88.5t-88.5 -34.5z" />
    <glyph glyph-name="Zacute" unicode="&#x179;" horiz-adv-x="628" 
d="M31 0v199l327 1171h-309v199h547v-109l-350 -1261h350v-199h-565zM223 1712l117 268h227l-194 -268h-150z" />
    <glyph glyph-name="zacute" unicode="&#x17a;" horiz-adv-x="571" 
d="M25 0v180l288 791h-250v190h482v-145l-295 -821h270v-195h-495zM184 1305l117 268h227l-194 -268h-150z" />
    <glyph glyph-name="Zdotaccent" unicode="&#x17b;" horiz-adv-x="628" 
d="M31 0v199l327 1171h-309v199h547v-109l-350 -1261h350v-199h-565zM334 1702q-51 0 -87 35t-36 88q0 50 36.5 85.5t86.5 35.5q51 0 86 -35t35 -86q0 -53 -34.5 -88t-86.5 -35z" />
    <glyph glyph-name="zdotaccent" unicode="&#x17c;" horiz-adv-x="571" 
d="M25 0v180l288 791h-250v190h482v-145l-295 -821h270v-195h-495zM305 1294q-51 0 -87 35t-36 88q0 50 36.5 85.5t86.5 35.5q51 0 86 -35t35 -86q0 -53 -35 -88t-86 -35z" />
    <glyph glyph-name="Zcaron" unicode="&#x17d;" horiz-adv-x="628" 
d="M31 0v199l327 1171h-309v199h547v-109l-350 -1261h350v-199h-565zM246 1712l-162 289h160l92 -158l82 158h166l-154 -289h-184z" />
    <glyph glyph-name="zcaron" unicode="&#x17e;" horiz-adv-x="571" 
d="M25 0v180l288 791h-250v190h482v-145l-295 -821h270v-195h-495zM217 1305l-162 288h160l92 -157l82 157h166l-154 -288h-184z" />
    <glyph glyph-name="florin" unicode="&#x192;" horiz-adv-x="899" 
d="M115 176q32 -4 45 -4q29 0 49 10t33.5 34.5t21 48t17.5 67.5l81 391h-151l39 192h153l76 363q35 167 108 237t208 70q43 0 88 -10l-39 -184q-27 6 -47 6q-23 0 -41 -8t-29.5 -20t-21.5 -35.5t-15.5 -43.5t-13.5 -55l-68 -320h154l-41 -192h-154l-90 -434
q-36 -164 -105.5 -235.5t-207.5 -71.5q-43 0 -88 10z" />
    <glyph glyph-name="AEacute" unicode="&#x1fc;" horiz-adv-x="1126" 
d="M510 0v348h-231l-89 -348h-206l405 1569h682v-199h-352v-479h338v-199h-338v-493h352v-199h-561zM510 1274l-182 -717h182v717zM606 1712l117 268h227l-194 -268h-150z" />
    <glyph glyph-name="aeacute" unicode="&#x1fd;" horiz-adv-x="1013" 
d="M963 311q0 -170 -67.5 -248.5t-209.5 -78.5q-194 0 -252 143q-44 -78 -88 -110.5t-119 -32.5q-33 0 -56 6.5t-47 28.5t-38.5 60t-23.5 104t-9 159v33q0 168 43.5 237.5t134.5 69.5q35 0 64 -8t50.5 -25t33 -29t27.5 -32v264q0 72 -16.5 101.5t-57.5 29.5q-42 0 -58 -34.5
t-16 -121.5v-36h-205v71q0 154 67 235t216 81q111 0 174 -48q67 48 176 48q142 0 209.5 -78.5t67.5 -249.5v-356h-353v-158q0 -87 16 -121.5t58 -34.5t58 34.5t16 121.5v47h205v-72zM758 827q0 87 -16 121.5t-58 34.5t-58 -34.5t-16 -121.5v-141h148v141zM406 356
q0 70 -16.5 100.5t-57.5 30.5q-42 0 -58 -34t-16 -121v-8q0 -79 16 -111.5t58 -32.5q35 0 54.5 26.5t19.5 104.5v45zM395 1305l117 268h227l-194 -268h-150z" />
    <glyph glyph-name="Oslashacute" unicode="&#x1fe;" horiz-adv-x="792" 
d="M221 -109l17 113q-166 80 -166 297v967q0 165 92 246t244 81q40 0 77 -6l15 86h75l-16 -106q160 -66 160 -301v-967q0 -86 -25.5 -150.5t-71 -102.5t-102 -56.5t-123.5 -18.5q-51 0 -86 9l-14 -91h-76zM453 1378q-25 19 -58 19q-48 0 -81 -38t-33 -118v-913l2 -119z
M510 1317l-168 -1133q24 -12 53 -12q48 0 81.5 38t33.5 118v989zM264 1712l117 268h227l-194 -268h-150z" />
    <glyph glyph-name="oslashacute" unicode="&#x1ff;" horiz-adv-x="681" 
d="M205 -109l16 109q-160 59 -160 311v539q0 168 67.5 248t213.5 80q23 0 59 -4l15 88h63l-16 -103q155 -58 155 -309v-539q0 -171 -67 -249t-209 -78q-23 0 -59 4l-15 -97h-63zM371 977q-12 6 -31 6q-42 0 -58 -34.5t-16 -121.5v-620zM414 918l-101 -734q8 -4 27 -4
q42 0 58 34.5t16 121.5v582zM209 1305l117 268h227l-195 -268h-149z" />
    <glyph glyph-name="Scommaaccent" unicode="&#x218;" horiz-adv-x="759" 
d="M702 301q0 -164 -87 -246t-236 -82q-148 0 -236 83t-88 245v223h209v-196q0 -80 33.5 -118t81.5 -38t81.5 38t33.5 118v129q0 35 -24 73t-63 73.5t-85.5 74t-93.5 82t-86 89.5t-63 104t-24 118v197q0 111 45.5 186.5t116.5 108t162 32.5q158 0 240.5 -78t82.5 -249v-246
h-208v219q0 80 -33.5 118t-81.5 38t-81.5 -38t-33.5 -118v-131q0 -48 24 -93t63 -81.5t85.5 -73t93 -75t85.5 -79.5t63 -95t24 -113v-199zM229 -422l109 320h217l-170 -320h-156z" />
    <glyph glyph-name="scommaaccent" unicode="&#x219;" horiz-adv-x="661" 
d="M246 334q0 -81 19 -118.5t67 -37.5q82 0 82 103q0 51 -20.5 92t-53.5 70.5t-72.5 57.5t-79.5 61.5t-73 74t-53.5 102.5t-20.5 140q0 299 295 299q148 0 215 -77.5t67 -250.5v-76h-204v53q0 88 -17 122t-65 34q-49 0 -66.5 -27.5t-17.5 -76.5q0 -56 20.5 -99.5t53 -72.5
t72 -56t79 -58t72 -69t53 -100t20.5 -141q0 -299 -290 -299q-148 0 -217.5 79t-69.5 244v76h205v-49zM176 -422l109 320h217l-170 -320h-156z" />
    <glyph glyph-name="dotlessj" unicode="&#x237;" horiz-adv-x="344" 
d="M-66 -252q14 -2 33 -2q62 0 82.5 36.5t20.5 121.5v1257h204v-1280q0 -166 -56.5 -236.5t-192.5 -70.5q-46 0 -91 10v164z" />
    <glyph glyph-name="circumflex" unicode="&#x2c6;" horiz-adv-x="577" 
d="M379 1305l-92 157l-82 -157h-166l154 288h184l162 -288h-160z" />
    <glyph glyph-name="caron" unicode="&#x2c7;" horiz-adv-x="577" 
d="M201 1305l-162 288h160l92 -157l82 157h166l-154 -288h-184z" />
    <glyph glyph-name="breve" unicode="&#x2d8;" horiz-adv-x="557" 
d="M518 1536q-9 -254 -239 -254q-237 0 -240 254h115q4 -109 125 -109q65 0 92 29.5t32 79.5h115z" />
    <glyph glyph-name="dotaccent" unicode="&#x2d9;" horiz-adv-x="321" 
d="M162 1294q-51 0 -87 35t-36 88q0 50 36.5 85.5t86.5 35.5q51 0 86 -35t35 -86q0 -53 -34.5 -88t-86.5 -35z" />
    <glyph glyph-name="ring" unicode="&#x2da;" horiz-adv-x="434" 
d="M281 1440q0 29 -17.5 46t-46.5 17t-46 -17t-17 -46t17 -46.5t46 -17.5t46.5 17.5t17.5 46.5zM217 1262q-75 0 -126.5 51.5t-51.5 126.5t51.5 126.5t126.5 51.5t126.5 -51.5t51.5 -126.5t-51.5 -126.5t-126.5 -51.5z" />
    <glyph glyph-name="ogonek" unicode="&#x2db;" horiz-adv-x="540" 
d="M459 -426q-114 6 -186 71t-72 154q0 58 33.5 111t99.5 90h168q-58 -37 -88.5 -83.5t-30.5 -92.5q0 -49 37.5 -87.5t109.5 -55.5z" />
    <glyph glyph-name="tilde" unicode="&#x2dc;" horiz-adv-x="581" 
d="M543 1499q-5 -87 -41.5 -140.5t-106.5 -53.5q-34 0 -87.5 19t-82.5 19q-15 0 -23.5 -1.5t-17.5 -11t-12 -27.5h-133q5 88 41 141t106 53q34 0 87.5 -19.5t82.5 -19.5q48 0 54 41h133z" />
    <glyph glyph-name="hungarumlaut" unicode="&#x2dd;" horiz-adv-x="542" 
d="M0 1305l90 276h207l-127 -276h-170zM281 1305l90 276h207l-127 -276h-170z" />
    <glyph glyph-name="tonos" unicode="&#x384;" horiz-adv-x="309" 
d="M0 1305l117 268h227l-194 -268h-150z" />
    <glyph glyph-name="dieresistonos" unicode="&#x385;" horiz-adv-x="868" 
d="M162 1284q-51 0 -87 35t-36 88q0 50 36.5 85.5t86.5 35.5q51 0 86 -35t35 -86q0 -53 -34.5 -88t-86.5 -35zM707 1284q-50 0 -85.5 35t-35.5 88q0 51 35.5 86t85.5 35q53 0 87.5 -34.5t34.5 -86.5q0 -54 -34 -88.5t-88 -34.5zM289 1257l100 295h207l-158 -295h-149z" />
    <glyph glyph-name="Alphatonos" unicode="&#x386;" horiz-adv-x="921" 
d="M707 0l-41 348h-232l-41 -348h-209l211 1569h307l213 -1569h-208zM549 1329l-92 -782h184zM-14 1300l116 269h228l-195 -269h-149z" />
    <glyph glyph-name="Epsilontonos" unicode="&#x388;" horiz-adv-x="976" 
d="M360 0v1569h562v-199h-353v-479h338v-199h-338v-493h353v-199h-562zM-25 1300l117 269h227l-194 -269h-150z" />
    <glyph glyph-name="Etatonos" unicode="&#x389;" horiz-adv-x="1089" 
d="M799 0v692h-230v-692h-209v1569h209v-678h230v678h209v-1569h-209zM-25 1300l117 269h227l-194 -269h-150z" />
    <glyph glyph-name="Iotatonos" unicode="&#x38a;" horiz-adv-x="651" 
d="M360 0v1569h209v-1569h-209zM-25 1300l117 269h227l-194 -269h-150z" />
    <glyph glyph-name="Omicrontonos" unicode="&#x38c;" horiz-adv-x="1015" 
d="M297 1268q0 165 92 246t244 81q311 0 311 -327v-967q0 -86 -25.5 -150.5t-71 -102.5t-101.5 -56.5t-123 -18.5t-124.5 19t-103.5 57.5t-72 103t-26 148.5v967zM735 1241q0 80 -33 118t-81 38t-81.5 -38t-33.5 -118v-913q0 -80 33.5 -118t81.5 -38t81 38t33 118v913z
M-25 1300l117 269h227l-194 -269h-150z" />
    <glyph glyph-name="Upsilontonos" unicode="&#x38e;" horiz-adv-x="1116" 
d="M645 0v545l-260 1024h211l154 -711l157 711h211l-264 -1022v-547h-209zM10 1300l117 269h227l-194 -269h-150z" />
    <glyph glyph-name="Omegatonos" unicode="&#x38f;" horiz-adv-x="1019" 
d="M655 0v217q84 24 84 152v872q0 78 -32 117t-82 39q-51 0 -83 -39t-32 -117v-872q0 -128 84 -152v-217h-309v201l186 -13q-94 28 -132 99.5t-38 204.5v776q0 75 20.5 134t53 94.5t76.5 58.5t86.5 31.5t87.5 8.5q323 0 323 -327v-776q0 -133 -38 -204.5t-132 -99.5l187 13
v-201h-310zM-20 1300l116 269h228l-195 -269h-149z" />
    <glyph glyph-name="iotadieresistonos" unicode="&#x390;" horiz-adv-x="407" 
d="M406 -6q-52 -10 -82 -10q-142 0 -200 69.5t-58 237.5v870h204v-837q0 -83 19 -121.5t76 -38.5q13 0 41 4v-174zM-98 1284q-51 0 -87 35t-36 88q0 50 36.5 85.5t86.5 35.5q51 0 86 -35t35 -86q0 -53 -34.5 -88t-86.5 -35zM446 1284q-50 0 -85 35t-35 88q0 51 35 86t85 35
q54 0 88.5 -35t34.5 -86q0 -54 -34.5 -88.5t-88.5 -34.5zM29 1257l100 295h207l-158 -295h-149z" />
    <glyph glyph-name="Alpha" unicode="&#x391;" horiz-adv-x="743" 
d="M528 0l-41 348h-231l-41 -348h-209l211 1569h307l213 -1569h-209zM371 1329l-92 -782h184z" />
    <glyph glyph-name="Beta" unicode="&#x392;" horiz-adv-x="790" 
d="M82 0v1569h352q126 0 205.5 -83t79.5 -245v-199q0 -180 -150 -237q92 -34 131 -96.5t39 -155.5v-225q0 -163 -79 -245.5t-205 -82.5h-373zM510 1214q0 85 -27 120.5t-88 35.5h-104v-469h104q61 0 88 35.5t27 120.5v157zM530 547q0 155 -135 155h-104v-503h125
q61 0 87.5 35t26.5 120v193z" />
    <glyph glyph-name="Gamma" unicode="&#x393;" horiz-adv-x="657" 
d="M82 0v1569h561v-199h-352v-1370h-209z" />
    <glyph glyph-name="uni0394" unicode="&#x394;" horiz-adv-x="743" 
d="M6 0l211 1569h307l213 -1569h-731zM371 1329l-133 -1130h266z" />
    <glyph glyph-name="Epsilon" unicode="&#x395;" horiz-adv-x="698" 
d="M82 0v1569h561v-199h-352v-479h338v-199h-338v-493h352v-199h-561z" />
    <glyph glyph-name="Zeta" unicode="&#x396;" horiz-adv-x="628" 
d="M31 0v199l327 1171h-309v199h547v-109l-350 -1261h350v-199h-565z" />
    <glyph glyph-name="Eta" unicode="&#x397;" horiz-adv-x="811" 
d="M520 0v692h-229v-692h-209v1569h209v-678h229v678h209v-1569h-209z" />
    <glyph glyph-name="Theta" unicode="&#x398;" horiz-adv-x="790" 
d="M72 1268q0 165 92 246t244 81q311 0 311 -327v-967q0 -86 -25.5 -150.5t-71 -102.5t-102 -56.5t-123.5 -18.5t-124.5 19t-103 57.5t-71.5 103t-26 148.5v967zM510 1241q0 80 -33.5 118t-81.5 38t-81 -38t-33 -118v-913q0 -80 33 -118t81 -38t81.5 38t33.5 118v913z
M322 692v199h149v-199h-149z" />
    <glyph glyph-name="Iota" unicode="&#x399;" horiz-adv-x="372" 
d="M82 0v1569h209v-1569h-209z" />
    <glyph glyph-name="Kappa" unicode="&#x39a;" horiz-adv-x="772" 
d="M582 0l-289 784l250 785h209l-238 -778l277 -791h-209zM82 0v1569h209v-1569h-209z" />
    <glyph glyph-name="Lambda" unicode="&#x39b;" horiz-adv-x="743" 
d="M528 0l-157 1329l-156 -1329h-209l211 1569h307l213 -1569h-209z" />
    <glyph glyph-name="Mu" unicode="&#x39c;" horiz-adv-x="1187" 
d="M897 0l4 1174l-213 -1174h-188l-213 1171l4 -1171h-209v1569h338l174 -1094l174 1094h338v-1569h-209z" />
    <glyph glyph-name="Nu" unicode="&#x39d;" horiz-adv-x="917" 
d="M563 0l-276 1047l4 -1047h-209v1569h262l287 -1065l-4 1065h209v-1569h-273z" />
    <glyph glyph-name="Xi" unicode="&#x39e;" horiz-adv-x="712" 
d="M43 0v209h627v-209h-627zM43 1360v209h627v-209h-627zM94 692v199h524v-199h-524z" />
    <glyph glyph-name="Omicron" unicode="&#x39f;" horiz-adv-x="790" 
d="M72 1268q0 165 92 246t244 81q311 0 311 -327v-967q0 -86 -25.5 -150.5t-71 -102.5t-102 -56.5t-123.5 -18.5t-124.5 19t-103 57.5t-71.5 103t-26 148.5v967zM510 1241q0 80 -33.5 118t-81.5 38t-81 -38t-33 -118v-913q0 -80 33 -118t81 -38t81.5 38t33.5 118v913z" />
    <glyph glyph-name="Pi" unicode="&#x3a0;" horiz-adv-x="811" 
d="M520 0v1370h-229v-1370h-209v1569h647v-1569h-209z" />
    <glyph glyph-name="Rho" unicode="&#x3a1;" horiz-adv-x="759" 
d="M82 0v1569h346q127 0 209 -80.5t82 -247.5v-268q0 -168 -76 -248t-203 -80h-149v-645h-209zM510 1214q0 85 -27 120.5t-88 35.5h-104v-526h104q61 0 88 35t27 120v215z" />
    <glyph glyph-name="Sigma" unicode="&#x3a3;" horiz-adv-x="641" 
d="M39 0v199l223 606l-223 565v199h565v-199h-350l221 -565l-221 -606h350v-199h-565z" />
    <glyph glyph-name="Tau" unicode="&#x3a4;" horiz-adv-x="630" 
d="M211 0v1370h-195v199h598v-199h-194v-1370h-209z" />
    <glyph glyph-name="Upsilon" unicode="&#x3a5;" horiz-adv-x="731" 
d="M260 0v545l-260 1024h211l154 -711l157 711h211l-264 -1022v-547h-209z" />
    <glyph glyph-name="Phi" unicode="&#x3a6;" horiz-adv-x="983" 
d="M387 -2v143q-96 4 -163.5 35.5t-106 88.5t-55.5 128t-17 164v453q0 93 17 164t55.5 127.5t106 88t163.5 35.5v146h209v-146q183 -11 262.5 -117.5t79.5 -297.5v-453q0 -191 -79.5 -298t-262.5 -118v-143h-209zM387 1223q-46 -3 -77.5 -34.5t-43.5 -73t-12 -91.5v-481
q0 -50 12 -91.5t43.5 -73t77.5 -34.5v879zM729 1024q0 49 -12.5 91.5t-44 73.5t-76.5 34v-879q45 3 76.5 34t44 73.5t12.5 91.5v481z" />
    <glyph glyph-name="Chi" unicode="&#x3a7;" horiz-adv-x="770" 
d="M563 0l-172 594l-192 -594h-209l280 807l-268 762h211l178 -541l166 541h211l-242 -764l246 -805h-209z" />
    <glyph glyph-name="Psi" unicode="&#x3a8;" horiz-adv-x="1013" 
d="M403 -2v348q-96 4 -163.5 35.5t-106 88.5t-55.5 128t-17 164v807h209v-821q0 -50 12 -91.5t43.5 -73t77.5 -34.5v1020h209v-1020q45 3 76.5 34t44 73.5t12.5 91.5v821h209v-807q0 -191 -79.5 -298t-262.5 -118v-348h-209z" />
    <glyph glyph-name="uni03A9" unicode="&#x3a9;" horiz-adv-x="800" 
d="M430 0v217q84 24 84 152v872q0 78 -32 117t-83 39q-50 0 -82 -39t-32 -117v-872q0 -128 84 -152v-217h-310v201l187 -13q-94 28 -132 99.5t-38 204.5v776q0 93 30 160.5t80.5 102t102.5 49.5t110 15q324 0 324 -327v-776q0 -133 -38 -204.5t-132 -99.5l186 13v-201h-309z
" />
    <glyph glyph-name="Iotadieresis" unicode="&#x3aa;" horiz-adv-x="372" 
d="M82 0v1569h209v-1569h-209zM12 1692q-51 0 -87 35t-36 88q0 50 36.5 85t86.5 35q51 0 86 -34.5t35 -85.5q0 -53 -34.5 -88t-86.5 -35zM360 1692q-50 0 -85 35t-35 88q0 51 35 85.5t85 34.5q54 0 88.5 -34.5t34.5 -85.5q0 -54 -34.5 -88.5t-88.5 -34.5z" />
    <glyph glyph-name="Upsilondieresis" unicode="&#x3ab;" horiz-adv-x="731" 
d="M260 0v545l-260 1024h211l154 -711l157 711h211l-264 -1022v-547h-209zM193 1692q-51 0 -87 35t-36 88q0 50 36.5 85t86.5 35q51 0 85.5 -34.5t34.5 -85.5q0 -54 -34.5 -88.5t-85.5 -34.5zM541 1692q-50 0 -85.5 35t-35.5 88q0 51 35.5 85.5t85.5 34.5q54 0 88.5 -34.5
t34.5 -85.5q0 -54 -34.5 -88.5t-88.5 -34.5z" />
    <glyph glyph-name="alphatonos" unicode="&#x3ac;" horiz-adv-x="690" 
d="M444 0l-18 94q-14 -22 -26 -36.5t-34 -34t-54.5 -29.5t-73.5 -10q-102 0 -138.5 73t-36.5 246v555q0 173 36.5 246.5t138.5 73.5q41 0 73.5 -10.5t54.5 -30t34 -34t26 -36.5l18 94h177v-1161h-177zM416 827q0 87 -16 121.5t-58 34.5t-58 -34.5t-16 -121.5v-493
q0 -87 16 -121.5t58 -34.5t58 34.5t16 121.5v493zM213 1305l117 268h227l-195 -268h-149z" />
    <glyph glyph-name="epsilontonos" unicode="&#x3ad;" horiz-adv-x="649" 
d="M608 311q0 -170 -66.5 -248.5t-207.5 -78.5q-283 0 -283 303v35q0 40 1 65t5.5 55.5t14.5 49.5t26 39t41 34t60 25q-41 11 -69.5 30.5t-44 40.5t-23 55.5t-9.5 63.5t-2 78v33q0 134 72 210.5t215 76.5q137 0 203.5 -80.5t66.5 -247.5v-12h-205v10q0 74 -15.5 104.5
t-57.5 30.5q-41 0 -56.5 -29t-17.5 -102v-31q0 -40 15.5 -69t39 -42t43.5 -18.5t37 -5.5q56 0 111 2v-196q-55 2 -113 2q-18 0 -38 -5.5t-43 -19t-37.5 -42.5t-14.5 -69v-22q0 -87 16 -121.5t58 -34.5t57.5 34t15.5 122v37h205v-62zM213 1305l117 268h227l-195 -268h-149z
" />
    <glyph glyph-name="etatonos" unicode="&#x3ae;" 
d="M422 0v827q0 87 -16 121.5t-58 34.5t-58 -34.5t-16 -121.5v-827h-204v1161h176l18 -94q14 22 26 36.5t34.5 34t55 30t73.5 10.5q102 0 138 -73t36 -247v-858h-205zM229 1305l117 268h227l-194 -268h-150z" />
    <glyph glyph-name="iotatonos" unicode="&#x3af;" horiz-adv-x="409" 
d="M408 -6q-52 -10 -82 -10q-142 0 -200 69.5t-58 237.5v870h204v-837q0 -83 19 -121.5t76 -38.5q13 0 41 4v-174zM63 1305l117 268h228l-195 -268h-150z" />
    <glyph glyph-name="upsilondieresistonos" unicode="&#x3b0;" horiz-adv-x="688" 
d="M418 1161h205v-850q0 -170 -67.5 -248.5t-209.5 -78.5q-145 0 -212.5 79.5t-67.5 247.5v850h204v-825q0 -87 16 -121.5t58 -34.5t58 34.5t16 121.5v825zM72 1284q-51 0 -87 35t-36 88q0 50 36.5 85.5t86.5 35.5q51 0 86 -35t35 -86q0 -53 -34.5 -88t-86.5 -35zM616 1284
q-50 0 -85 35t-35 88q0 51 35 86t85 35q54 0 88.5 -35t34.5 -86q0 -54 -34.5 -88.5t-88.5 -34.5zM199 1257l100 295h207l-158 -295h-149z" />
    <glyph glyph-name="alpha" unicode="&#x3b1;" horiz-adv-x="690" 
d="M444 0l-18 94q-14 -22 -26 -36.5t-34 -34t-54.5 -29.5t-73.5 -10q-102 0 -138.5 73t-36.5 246v555q0 173 36.5 246.5t138.5 73.5q41 0 73.5 -10.5t54.5 -30t34 -34t26 -36.5l18 94h177v-1161h-177zM416 827q0 87 -16 121.5t-58 34.5t-58 -34.5t-16 -121.5v-493
q0 -87 16 -121.5t58 -34.5t58 34.5t16 121.5v493z" />
    <glyph glyph-name="beta" unicode="&#x3b2;" horiz-adv-x="700" 
d="M70 -408v1655q0 160 63.5 247t214.5 87t215 -87.5t64 -246.5v-59q0 -126 -35 -188.5t-100 -81.5q155 -31 155 -248v-367q0 -163 -50 -241t-159 -78q-46 0 -79.5 14.5t-49.5 31.5t-35 46v-484h-204zM442 569q0 241 -114 260v168q29 8 48 26.5t29 46.5t13.5 58.5t3.5 73.5
v39q0 28 -1 46.5t-5.5 39t-12 32t-21.5 19.5t-34 8q-46 0 -60 -36.5t-14 -108.5v-907q0 -84 22.5 -120t70.5 -36q44 0 59.5 33.5t15.5 122.5v235z" />
    <glyph glyph-name="gamma" unicode="&#x3b3;" horiz-adv-x="624" 
d="M209 -406l8 398l-211 1169h213l92 -823l95 823h212l-212 -1169l8 -398h-205z" />
    <glyph glyph-name="delta" unicode="&#x3b4;" horiz-adv-x="661" 
d="M614 311q0 -171 -67 -249t-209 -78q-146 0 -213.5 79.5t-67.5 247.5v477q0 96 24.5 146t84.5 90q-90 93 -90 252q0 309 309 309q95 0 203 -31l-45 -192q-109 31 -154 31q-53 0 -79.5 -26t-26.5 -89q0 -50 18.5 -90.5t47.5 -71t64 -60t70.5 -65.5t64.5 -79t47.5 -108.5
t18.5 -146.5v-346zM410 635q0 93 -17.5 146.5t-75.5 97.5q-32 -6 -43.5 -40t-11.5 -114v-389q0 -87 16 -121.5t58 -34.5t58 34.5t16 121.5v299z" />
    <glyph glyph-name="epsilon" unicode="&#x3b5;" horiz-adv-x="649" 
d="M608 311q0 -170 -66.5 -248.5t-207.5 -78.5q-283 0 -283 303v35q0 40 1 65t5.5 55.5t14.5 49.5t26 39t41 34t60 25q-41 11 -69.5 30.5t-44 40.5t-23 55.5t-9.5 63.5t-2 78v33q0 134 72 210.5t215 76.5q137 0 203.5 -80.5t66.5 -247.5v-12h-205v10q0 74 -15.5 104.5
t-57.5 30.5q-41 0 -56.5 -29t-17.5 -102v-31q0 -40 15.5 -69t39 -42t43.5 -18.5t37 -5.5q56 0 111 2v-196q-55 2 -113 2q-18 0 -38 -5.5t-43 -19t-37.5 -42.5t-14.5 -69v-22q0 -87 16 -121.5t58 -34.5t57.5 34t15.5 122v37h205v-62z" />
    <glyph glyph-name="zeta" unicode="&#x3b6;" horiz-adv-x="595" 
d="M299 -201q57 98 57 135q0 28 -14 42t-57 32q-120 50 -158 76q-73 51 -88 148q-4 30 -4 67q0 162 86.5 319.5t261.5 352.5h-322v190h539v-198q-178 -209 -268 -358t-90 -273q0 -32 7.5 -55.5t17.5 -38t32.5 -27.5t40 -20t52.5 -20.5t59 -23.5q124 -51 124 -163
q0 -102 -124 -275z" />
    <glyph glyph-name="eta" unicode="&#x3b7;" 
d="M422 0v827q0 87 -16 121.5t-58 34.5t-58 -34.5t-16 -121.5v-827h-204v1161h176l18 -94q14 22 26 36.5t34.5 34t55 30t73.5 10.5q102 0 138 -73t36 -247v-858h-205z" />
    <glyph glyph-name="theta" unicode="&#x3b8;" horiz-adv-x="692" 
d="M68 1251q0 168 67.5 248t212.5 80q142 0 209.5 -78.5t67.5 -249.5v-940q0 -170 -67.5 -248.5t-209.5 -78.5q-145 0 -212.5 79.5t-67.5 247.5v940zM420 1229q0 87 -16 121t-58 34t-58 -34t-16 -121v-355h148v355zM420 684h-148v-348q0 -87 16 -121.5t58 -34.5t58 34.5
t16 121.5v348z" />
    <glyph glyph-name="iota" unicode="&#x3b9;" horiz-adv-x="409" 
d="M408 -6q-52 -10 -82 -10q-142 0 -200 69.5t-58 237.5v870h204v-837q0 -83 19 -121.5t76 -38.5q13 0 41 4v-174z" />
    <glyph glyph-name="kappa" unicode="&#x3ba;" 
d="M485 0l-209 594l209 567h209l-200 -561l198 -600h-207zM70 0v1161h204v-1161h-204z" />
    <glyph glyph-name="lambda" unicode="&#x3bb;" horiz-adv-x="841" 
d="M840 0q-56 -16 -101 -16q-80 0 -131.5 47.5t-85.5 169.5l-133 487l-186 -688h-219l317 1018l-61 233q-20 77 -41.5 110.5t-57.5 33.5t-73 -13l-27 187q69 16 139 16q90 0 149.5 -49t90.5 -166l282 -1053q35 -151 99 -151q20 0 33 8z" />
    <glyph glyph-name="uni03BC" unicode="&#x3bc;" horiz-adv-x="696" 
d="M70 -408v1569h204v-827q0 -87 16 -121.5t58 -34.5t58 34.5t16 121.5v827h205v-1161h-176l-19 94q-62 -94 -123 -94q-17 0 -35 6v-414h-204z" />
    <glyph glyph-name="nu" unicode="&#x3bd;" horiz-adv-x="645" 
d="M174 0l-158 1161h213l93 -946l94 946h213l-156 -1161h-299z" />
    <glyph glyph-name="xi" unicode="&#x3be;" horiz-adv-x="616" 
d="M348 -201q58 100 58 133q0 24 -14.5 39t-57.5 33q-23 10 -64.5 25t-61.5 23.5t-50 24.5t-44.5 33.5t-30.5 43.5t-22 62t-6 83v281q0 40 1 65t5.5 55.5t14.5 49.5t26 39t41 34t60 25q-41 11 -69.5 30.5t-44 40.5t-23 55.5t-9.5 63.5t-2 78v178q0 134 72 210.5t215 76.5
q137 0 203.5 -80.5t66.5 -247.5v-12h-204v10q0 74 -16 104.5t-58 30.5q-41 0 -57.5 -29.5t-16.5 -101.5v-176q0 -40 15.5 -69t39 -42t43.5 -18.5t37 -5.5q56 0 111 2v-196q-55 2 -113 2q-18 0 -38 -5.5t-43 -19t-37.5 -42.5t-14.5 -69v-249q0 -42 10 -73.5t24.5 -50
t41 -33.5t47.5 -22.5t57.5 -19.5t59.5 -21q56 -24 90.5 -60.5t34.5 -100.5q0 -109 -125 -277z" />
    <glyph glyph-name="omicron" unicode="&#x3bf;" horiz-adv-x="679" 
d="M618 311q0 -171 -67 -249t-209 -78q-146 0 -213.5 79.5t-67.5 247.5v539q0 168 67.5 248t213.5 80q142 0 209 -78.5t67 -249.5v-539zM414 827q0 87 -16 121.5t-58 34.5t-58 -34.5t-16 -121.5v-491q0 -87 16 -121.5t58 -34.5t58 34.5t16 121.5v491z" />
    <glyph glyph-name="pi" unicode="&#x3c0;" horiz-adv-x="696" 
d="M422 0v971h-148v-971h-204v1161h557v-1161h-205z" />
    <glyph glyph-name="rho" unicode="&#x3c1;" horiz-adv-x="686" 
d="M68 -408v1258q0 168 67.5 248t212.5 80q142 0 209.5 -78.5t67.5 -249.5v-547q0 -175 -36 -247t-140 -72q-39 0 -69 8.5t-51 25.5t-32.5 30.5t-24.5 33.5v-490h-204zM420 827q0 87 -16 121.5t-58 34.5t-58 -34.5t-16 -121.5v-493q0 -87 16 -121.5t58 -34.5t58 34.5
t16 121.5v493z" />
    <glyph glyph-name="sigma1" unicode="&#x3c2;" horiz-adv-x="659" 
d="M352 -201q58 100 58 133q0 24 -14.5 39t-57.5 33q-23 10 -64.5 25t-61.5 23.5t-50 24.5t-44.5 33.5t-30.5 43.5t-22 62t-6 83v551q0 168 67.5 248t213.5 80q142 0 209 -78.5t67 -249.5v-115h-204v92q0 87 -16 121.5t-58 34.5t-58 -34.5t-16 -121.5v-460q0 -42 10 -73.5
t24.5 -50t41 -33.5t47.5 -22.5t57.5 -19.5t59.5 -21q56 -24 90.5 -60.5t34.5 -100.5q0 -109 -125 -277z" />
    <glyph glyph-name="sigma" unicode="&#x3c3;" horiz-adv-x="710" 
d="M618 311q0 -171 -67 -249t-209 -78q-146 0 -213.5 79.5t-67.5 247.5v523q0 168 67.5 247.5t213.5 79.5h348v-190l-112 8q40 -50 40 -129v-539zM414 811q0 87 -16 121.5t-58 34.5t-58 -34.5t-16 -121.5v-475q0 -87 16 -121.5t58 -34.5t58 34.5t16 121.5v475z" />
    <glyph glyph-name="tau" unicode="&#x3c4;" horiz-adv-x="608" 
d="M532 -6q-52 -10 -81 -10q-142 0 -200 69.5t-58 237.5v680h-187v190h580v-190h-189v-647q0 -83 19 -121.5t76 -38.5q12 0 40 4v-174z" />
    <glyph glyph-name="upsilon" unicode="&#x3c5;" horiz-adv-x="692" 
d="M420 1161h205v-850q0 -170 -67.5 -248.5t-209.5 -78.5q-145 0 -212.5 79.5t-67.5 247.5v850h204v-825q0 -87 16 -121.5t58 -34.5t58 34.5t16 121.5v825z" />
    <glyph glyph-name="phi" unicode="&#x3c6;" horiz-adv-x="954" 
d="M379 -406v394q-322 29 -322 360v490q0 91 25.5 162t97.5 126l131 -125q-49 -66 -49 -190v-457q0 -149 117 -168v992h160q98 0 170.5 -28t113 -77.5t59.5 -107.5t19 -127v-490q0 -331 -321 -360v-394h-201zM696 811q0 149 -116 168v-793q116 19 116 168v457z" />
    <glyph glyph-name="chi" unicode="&#x3c7;" horiz-adv-x="643" 
d="M438 0l-125 387l-108 -387h-201l193 594l-191 567h203l113 -352l108 352h207l-199 -569l203 -592h-203z" />
    <glyph glyph-name="psi" unicode="&#x3c8;" horiz-adv-x="974" 
d="M387 -406v394q-321 29 -321 360v813h204v-807q0 -149 117 -168v975h201v-975q117 19 117 168v807h204v-813q0 -331 -321 -360v-394h-201z" />
    <glyph glyph-name="omega" unicode="&#x3c9;" horiz-adv-x="1021" 
d="M756 827q0 87 -16 121.5t-60 34.5v195q146 0 213.5 -80t67.5 -248v-539q0 -169 -63.5 -248t-190.5 -79q-144 0 -201 88q-53 -88 -197 -88q-258 0 -258 327v539q0 168 67.5 248t213.5 80v-195q-44 0 -60 -34.5t-16 -121.5v-491q0 -87 16 -121.5t58 -34.5q41 0 57 29
t16 102v543h205v-543q0 -72 16.5 -101.5t57.5 -29.5q42 0 58 34.5t16 121.5v491z" />
    <glyph glyph-name="iotadieresis" unicode="&#x3ca;" horiz-adv-x="409" 
d="M408 -6q-52 -10 -82 -10q-142 0 -200 69.5t-58 237.5v870h204v-837q0 -83 19 -121.5t76 -38.5q13 0 41 4v-174zM-4 1284q-51 0 -87 35t-36 88q0 50 36.5 85.5t86.5 35.5q51 0 86 -35t35 -86q0 -53 -34.5 -88t-86.5 -35zM344 1284q-50 0 -85.5 35t-35.5 88q0 51 35.5 86
t85.5 35q54 0 88.5 -35t34.5 -86q0 -54 -34.5 -88.5t-88.5 -34.5z" />
    <glyph glyph-name="upsilondieresis" unicode="&#x3cb;" horiz-adv-x="688" 
d="M418 1161h205v-850q0 -170 -67.5 -248.5t-209.5 -78.5q-145 0 -212.5 79.5t-67.5 247.5v850h204v-825q0 -87 16 -121.5t58 -34.5t58 34.5t16 121.5v825zM170 1284q-51 0 -87 35t-36 88q0 50 36.5 85.5t86.5 35.5q51 0 86 -35t35 -86q0 -53 -34.5 -88t-86.5 -35zM518 1284
q-50 0 -85.5 35t-35.5 88q0 51 35.5 86t85.5 35q54 0 88.5 -35t34.5 -86q0 -54 -34.5 -88.5t-88.5 -34.5z" />
    <glyph glyph-name="omicrontonos" unicode="&#x3cc;" horiz-adv-x="679" 
d="M618 311q0 -171 -67 -249t-209 -78q-146 0 -213.5 79.5t-67.5 247.5v539q0 168 67.5 248t213.5 80q142 0 209 -78.5t67 -249.5v-539zM414 827q0 87 -16 121.5t-58 34.5t-58 -34.5t-16 -121.5v-491q0 -87 16 -121.5t58 -34.5t58 34.5t16 121.5v491zM229 1305l117 268h227
l-194 -268h-150z" />
    <glyph glyph-name="upsilontonos" unicode="&#x3cd;" horiz-adv-x="692" 
d="M420 1161h205v-850q0 -170 -67.5 -248.5t-209.5 -78.5q-145 0 -212.5 79.5t-67.5 247.5v850h204v-825q0 -87 16 -121.5t58 -34.5t58 34.5t16 121.5v825zM236 1305l116 268h228l-195 -268h-149z" />
    <glyph glyph-name="omegatonos" unicode="&#x3ce;" horiz-adv-x="1021" 
d="M756 827q0 87 -16 121.5t-60 34.5v195q146 0 213.5 -80t67.5 -248v-539q0 -169 -63.5 -248t-190.5 -79q-144 0 -201 88q-53 -88 -197 -88q-258 0 -258 327v539q0 168 67.5 248t213.5 80v-195q-44 0 -60 -34.5t-16 -121.5v-491q0 -87 16 -121.5t58 -34.5q41 0 57 29
t16 102v543h205v-543q0 -72 16.5 -101.5t57.5 -29.5q42 0 58 34.5t16 121.5v491zM403 1305l117 268h228l-195 -268h-150z" />
    <glyph glyph-name="uni0401" unicode="&#x401;" horiz-adv-x="698" 
d="M82 0v1569h561v-199h-352v-479h338v-199h-338v-493h352v-199h-561zM186 1692q-51 0 -87 35t-36 88q0 50 36.5 85t86.5 35q51 0 86 -34.5t35 -85.5q0 -53 -34.5 -88t-86.5 -35zM535 1692q-50 0 -85.5 35t-35.5 88q0 51 35.5 85.5t85.5 34.5q53 0 87.5 -34.5t34.5 -85.5
q0 -54 -34 -88.5t-88 -34.5z" />
    <glyph glyph-name="uni0402" unicode="&#x402;" horiz-adv-x="890" 
d="M516 -16v198h8q48 0 81.5 38t33.5 118v244q0 97 -29 129t-94 32q-59 0 -96 -26v-717h-209v1370h-195v199h660v-199h-256v-444q57 24 129 24q71 0 123.5 -17t93 -56.5t61.5 -109t21 -169.5v-287q0 -86 -26 -150.5t-71.5 -102t-102 -56t-124.5 -18.5h-8z" />
    <glyph glyph-name="uni0403" unicode="&#x403;" horiz-adv-x="657" 
d="M82 0v1569h561v-199h-352v-1370h-209zM262 1712l117 268h227l-194 -268h-150z" />
    <glyph glyph-name="uni0404" unicode="&#x404;" horiz-adv-x="768" 
d="M719 301q0 -161 -89.5 -244.5t-238.5 -83.5q-147 0 -233 86.5t-86 253.5v942q0 167 85.5 253.5t231.5 86.5q154 0 242 -76.5t88 -236.5v-160h-209v121q0 79 -35 116.5t-84 37.5q-47 0 -78.5 -38.5t-31.5 -119.5v-348h315v-199h-315v-362q0 -82 31.5 -120t80.5 -38
q52 0 84.5 38.5t32.5 119.5v110h209v-139z" />
    <glyph glyph-name="uni0405" unicode="&#x405;" horiz-adv-x="759" 
d="M702 301q0 -164 -87 -246t-236 -82q-148 0 -236 83t-88 245v223h209v-196q0 -80 33.5 -118t81.5 -38t81.5 38t33.5 118v129q0 35 -24 73t-63 73.5t-85.5 74t-93.5 82t-86 89.5t-63 104t-24 118v197q0 111 45.5 186.5t116.5 108t162 32.5q158 0 240.5 -78t82.5 -249v-246
h-208v219q0 80 -33.5 118t-81.5 38t-81.5 -38t-33.5 -118v-131q0 -48 24 -93t63 -81.5t85.5 -73t93 -75t85.5 -79.5t63 -95t24 -113v-199z" />
    <glyph glyph-name="uni0406" unicode="&#x406;" horiz-adv-x="372" 
d="M82 0v1569h209v-1569h-209z" />
    <glyph glyph-name="uni0407" unicode="&#x407;" horiz-adv-x="372" 
d="M82 0v1569h209v-1569h-209zM12 1692q-51 0 -87 35t-36 88q0 50 36.5 85t86.5 35q51 0 86 -34.5t35 -85.5q0 -53 -34.5 -88t-86.5 -35zM360 1692q-50 0 -85 35t-35 88q0 51 35 85.5t85 34.5q54 0 88.5 -34.5t34.5 -85.5q0 -54 -34.5 -88.5t-88.5 -34.5z" />
    <glyph glyph-name="uni0408" unicode="&#x408;" horiz-adv-x="372" 
d="M-39 -393v198h6q48 0 81.5 38t33.5 118v1608h209v-1635q0 -86 -26 -150.5t-71.5 -102t-102 -56t-124.5 -18.5h-6z" />
    <glyph glyph-name="uni0409" unicode="&#x409;" horiz-adv-x="1230" 
d="M555 0v1370h-209v-1067q0 -86 -25.5 -150.5t-71 -102.5t-102.5 -56.5t-124 -18.5h-9v199h9q48 0 81 38t33 118v1239h627v-645h149q127 0 203 -80t76 -248v-268q0 -167 -82 -247.5t-209 -80.5h-346zM983 569q0 85 -27 120.5t-88 35.5h-104v-526h104q61 0 88 35t27 120v215
z" />
    <glyph glyph-name="uni040A" unicode="&#x40a;" horiz-adv-x="1196" 
d="M520 0v725h-229v-725h-209v1569h209v-645h229v645h209v-645h150q127 0 202.5 -80t75.5 -248v-268q0 -167 -82 -247.5t-209 -80.5h-346zM948 569q0 85 -26.5 120.5t-87.5 35.5h-105v-526h105q61 0 87.5 35t26.5 120v215z" />
    <glyph glyph-name="uni040B" unicode="&#x40b;" horiz-adv-x="897" 
d="M639 0v582q0 97 -29 129t-94 32q-59 0 -96 -26v-717h-209v1370h-195v199h660v-199h-256v-444q57 24 129 24q71 0 123.5 -17t93 -56.5t61.5 -109t21 -169.5v-598h-209z" />
    <glyph glyph-name="uni040C" unicode="&#x40c;" horiz-adv-x="757" 
d="M541 0q-18 348 -248 784q206 436 209 785h209q0 -358 -197 -778q223 -442 236 -791h-209zM82 0v1569h209v-1569h-209zM287 1712l116 268h228l-195 -268h-149z" />
    <glyph glyph-name="uni040E" unicode="&#x40e;" horiz-adv-x="854" 
d="M49 0l234 582l-303 987h210l207 -699l281 699h211l-631 -1569h-209zM670 1892q-9 -254 -240 -254q-237 0 -240 254h115q4 -108 125 -108q66 0 93 29.5t32 78.5h115z" />
    <glyph glyph-name="uni040F" unicode="&#x40f;" horiz-adv-x="811" 
d="M506 0v-217h-197v217h-227v1569h209v-1370h229v1370h209v-1569h-223z" />
    <glyph glyph-name="uni0410" unicode="&#x410;" horiz-adv-x="743" 
d="M528 0l-41 348h-231l-41 -348h-209l211 1569h307l213 -1569h-209zM371 1329l-92 -782h184z" />
    <glyph glyph-name="uni0411" unicode="&#x411;" horiz-adv-x="757" 
d="M82 0v1569h561v-199h-352v-446h149q127 0 203 -80t76 -248v-268q0 -167 -82 -247.5t-209 -80.5h-346zM510 569q0 85 -27 120.5t-88 35.5h-104v-526h104q61 0 88 35t27 120v215z" />
    <glyph glyph-name="uni0412" unicode="&#x412;" horiz-adv-x="790" 
d="M82 0v1569h352q126 0 205.5 -83t79.5 -245v-199q0 -180 -150 -237q92 -34 131 -96.5t39 -155.5v-225q0 -163 -79 -245.5t-205 -82.5h-373zM510 1214q0 85 -27 120.5t-88 35.5h-104v-469h104q61 0 88 35.5t27 120.5v157zM530 547q0 155 -135 155h-104v-503h125
q61 0 87.5 35t26.5 120v193z" />
    <glyph glyph-name="uni0413" unicode="&#x413;" horiz-adv-x="657" 
d="M82 0v1569h561v-199h-352v-1370h-209z" />
    <glyph glyph-name="uni0414" unicode="&#x414;" horiz-adv-x="927" 
d="M715 -217v217h-502v-217h-197v395q63 25 95 75t36 140l41 1176h627v-1370h96v-416h-196zM606 1370h-211l-35 -944q-5 -82 -24.5 -134.5t-65.5 -92.5h336v1171z" />
    <glyph glyph-name="uni0415" unicode="&#x415;" horiz-adv-x="698" 
d="M82 0v1569h561v-199h-352v-479h338v-199h-338v-493h352v-199h-561z" />
    <glyph glyph-name="uni0416" unicode="&#x416;" horiz-adv-x="1142" 
d="M926 0q-18 348 -248 784q206 436 209 785h209q0 -358 -197 -778q223 -442 236 -791h-209zM467 0v1569h209v-1569h-209zM8 0q13 349 236 791q-197 420 -197 778h209q3 -349 209 -785q-230 -436 -248 -784h-209z" />
    <glyph glyph-name="uni0417" unicode="&#x417;" horiz-adv-x="755" 
d="M696 305q0 -166 -85.5 -249t-233.5 -83q-149 0 -238.5 83.5t-89.5 244.5v139h209v-110q0 -81 32.5 -119.5t84.5 -38.5q49 0 80.5 38t31.5 120v233q0 70 -36.5 104.5t-114.5 34.5q-29 0 -115 -4v207q37 -4 146 -4q66 0 93 35t27 121v182q0 81 -31.5 119.5t-78.5 38.5
q-49 0 -84 -37.5t-35 -116.5v-121h-209v148q0 162 89 243.5t241 81.5q147 0 232 -78t85 -241v-205q0 -107 -36 -165.5t-132 -100.5q95 -34 131.5 -97.5t36.5 -172.5v-230z" />
    <glyph glyph-name="uni0418" unicode="&#x418;" horiz-adv-x="917" 
d="M627 0l4 1047l-277 -1047h-272v1569h209l-4 -1065l286 1065h263v-1569h-209z" />
    <glyph glyph-name="uni0419" unicode="&#x419;" horiz-adv-x="917" 
d="M627 0l4 1047l-277 -1047h-272v1569h209l-4 -1065l286 1065h263v-1569h-209zM702 1907q-9 -254 -239 -254q-237 0 -240 254h115q4 -109 125 -109q65 0 92.5 30t32.5 79h114z" />
    <glyph glyph-name="uni041A" unicode="&#x41a;" horiz-adv-x="757" 
d="M541 0q-18 348 -248 784q206 436 209 785h209q0 -358 -197 -778q223 -442 236 -791h-209zM82 0v1569h209v-1569h-209z" />
    <glyph glyph-name="uni041B" unicode="&#x41b;" horiz-adv-x="866" 
d="M575 0v1370h-229v-1067q0 -86 -25.5 -150.5t-71 -102.5t-102.5 -56.5t-124 -18.5h-9v199h9q48 0 81 38t33 118v1239h647v-1569h-209z" />
    <glyph glyph-name="uni041C" unicode="&#x41c;" horiz-adv-x="1187" 
d="M897 0l4 1174l-213 -1174h-188l-213 1171l4 -1171h-209v1569h338l174 -1094l174 1094h338v-1569h-209z" />
    <glyph glyph-name="uni041D" unicode="&#x41d;" horiz-adv-x="811" 
d="M520 0v692h-229v-692h-209v1569h209v-678h229v678h209v-1569h-209z" />
    <glyph glyph-name="uni041E" unicode="&#x41e;" horiz-adv-x="790" 
d="M72 1268q0 165 92 246t244 81q311 0 311 -327v-967q0 -86 -25.5 -150.5t-71 -102.5t-102 -56.5t-123.5 -18.5t-124.5 19t-103 57.5t-71.5 103t-26 148.5v967zM510 1241q0 80 -33.5 118t-81.5 38t-81 -38t-33 -118v-913q0 -80 33 -118t81 -38t81.5 38t33.5 118v913z" />
    <glyph glyph-name="uni041F" unicode="&#x41f;" horiz-adv-x="811" 
d="M520 0v1370h-229v-1370h-209v1569h647v-1569h-209z" />
    <glyph glyph-name="uni0420" unicode="&#x420;" horiz-adv-x="759" 
d="M82 0v1569h346q127 0 209 -80.5t82 -247.5v-268q0 -168 -76 -248t-203 -80h-149v-645h-209zM510 1214q0 85 -27 120.5t-88 35.5h-104v-526h104q61 0 88 35t27 120v215z" />
    <glyph glyph-name="uni0421" unicode="&#x421;" horiz-adv-x="772" 
d="M719 301q0 -86 -25.5 -150.5t-71 -102.5t-102 -56.5t-123.5 -18.5t-124.5 19t-103 57.5t-71.5 103t-26 148.5v967q0 165 91 246t240 81q51 0 96 -9.5t86 -32.5t70 -58t46.5 -89.5t17.5 -123.5v-260h-209v219q0 80 -33.5 118t-81.5 38t-81 -38t-33 -118v-913
q0 -80 33 -118t81 -38t81.5 38t33.5 118v196h209v-223z" />
    <glyph glyph-name="uni0422" unicode="&#x422;" horiz-adv-x="630" 
d="M211 0v1370h-195v199h598v-199h-194v-1370h-209z" />
    <glyph glyph-name="uni0423" unicode="&#x423;" horiz-adv-x="854" 
d="M49 0l234 582l-303 987h210l207 -699l281 699h211l-631 -1569h-209z" />
    <glyph glyph-name="uni0424" unicode="&#x424;" horiz-adv-x="983" 
d="M387 -2v143q-96 4 -163.5 35.5t-106 88.5t-55.5 128t-17 164v453q0 93 17 164t55.5 127.5t106 88t163.5 35.5v146h209v-146q183 -11 262.5 -117.5t79.5 -297.5v-453q0 -191 -79.5 -298t-262.5 -118v-143h-209zM387 1223q-46 -3 -77.5 -34.5t-43.5 -73t-12 -91.5v-481
q0 -50 12 -91.5t43.5 -73t77.5 -34.5v879zM729 1024q0 49 -12.5 91.5t-44 73.5t-76.5 34v-879q45 3 76.5 34t44 73.5t12.5 91.5v481z" />
    <glyph glyph-name="uni0425" unicode="&#x425;" horiz-adv-x="770" 
d="M563 0l-172 594l-192 -594h-209l280 807l-268 762h211l178 -541l166 541h211l-242 -764l246 -805h-209z" />
    <glyph glyph-name="uni0426" unicode="&#x426;" horiz-adv-x="882" 
d="M670 -217v217h-588v1569h209v-1370h229v1370h209v-1370h137v-416h-196z" />
    <glyph glyph-name="uni0427" unicode="&#x427;" horiz-adv-x="768" 
d="M477 0v641q-55 -23 -125 -23q-72 0 -125.5 17t-94.5 56.5t-62 109.5t-21 170v598h209v-582q0 -94 30.5 -128t92.5 -34q57 0 96 27v717h209v-1569h-209z" />
    <glyph glyph-name="uni0428" unicode="&#x428;" horiz-adv-x="1208" 
d="M1126 0h-1044v1569h209v-1370h209v1370h209v-1370h209v1370h208v-1569z" />
    <glyph glyph-name="uni0429" unicode="&#x429;" horiz-adv-x="1280" 
d="M1067 -217v217h-985v1569h209v-1370h209v1370h209v-1370h209v1370h208v-1370h138v-416h-197z" />
    <glyph glyph-name="uni042A" unicode="&#x42a;" horiz-adv-x="1042" 
d="M367 0v1370h-353v199h561v-645h150q127 0 203 -80t76 -248v-268q0 -167 -82 -247.5t-209 -80.5h-346zM795 569q0 85 -27 120.5t-88 35.5h-105v-526h105q61 0 88 35t27 120v215z" />
    <glyph glyph-name="uni042B" unicode="&#x42b;" horiz-adv-x="1173" 
d="M510 569q0 85 -27 120.5t-88 35.5h-104v-526h104q61 0 88 35t27 120v215zM82 0v1569h209v-645h149q127 0 203 -80t76 -248v-268q0 -167 -82 -247.5t-209 -80.5h-346zM883 0v1569h209v-1569h-209z" />
    <glyph glyph-name="uni042C" unicode="&#x42c;" horiz-adv-x="757" 
d="M510 569q0 85 -27 120.5t-88 35.5h-104v-526h104q61 0 88 35t27 120v215zM82 0v1569h209v-645h149q127 0 203 -80t76 -248v-268q0 -167 -82 -247.5t-209 -80.5h-346z" />
    <glyph glyph-name="uni042D" unicode="&#x42d;" horiz-adv-x="768" 
d="M696 313q0 -167 -86 -253.5t-233 -86.5q-149 0 -238.5 83.5t-89.5 244.5v139h209v-110q0 -81 32.5 -119.5t84.5 -38.5q49 0 80.5 38t31.5 120v362h-315v199h315v348q0 81 -31.5 119.5t-78.5 38.5q-49 0 -84 -37.5t-35 -116.5v-121h-209v160q0 160 88 236.5t242 76.5
q146 0 231.5 -86.5t85.5 -253.5v-942z" />
    <glyph glyph-name="uni042E" unicode="&#x42e;" horiz-adv-x="1204" 
d="M82 0v1569h209v-678h194v377q0 165 92 246t244 81q312 0 312 -327v-967q0 -86 -25.5 -150.5t-71 -102.5t-102 -56.5t-123.5 -18.5t-124.5 19t-103.5 57.5t-72 103t-26 148.5v391h-194v-692h-209zM924 1241q0 80 -33.5 118t-81.5 38t-81.5 -38t-33.5 -118v-913
q0 -80 33.5 -118t81.5 -38t81.5 38t33.5 118v913z" />
    <glyph glyph-name="uni042F" unicode="&#x42f;" horiz-adv-x="770" 
d="M479 1370h-104q-61 0 -88 -35.5t-27 -120.5v-215q0 -85 27 -120t88 -35h104v526zM479 0v645h-80l-180 -645h-209l193 690q-84 36 -118 106.5t-34 192.5v252q0 167 80.5 247.5t208.5 80.5h348v-1569h-209z" />
    <glyph glyph-name="uni0430" unicode="&#x430;" horiz-adv-x="677" 
d="M434 0l-18 96q-13 -23 -25 -39t-34 -34.5t-55 -28.5t-75 -10q-33 0 -56 6.5t-47 28.5t-38.5 60t-23.5 104t-9 159v33q0 168 43.5 237.5t134.5 69.5q35 0 64 -8t50.5 -25t33 -29t27.5 -32v239q0 87 -16 121.5t-58 34.5t-58 -34.5t-16 -121.5v-36h-205v71q0 154 67 235
t216 81q78 0 133 -23t85 -68t43 -101t13 -130v-856h-176zM406 356q0 70 -16.5 100.5t-57.5 30.5q-42 0 -58 -34t-16 -121v-8q0 -79 16 -111.5t58 -32.5q35 0 54.5 26.5t19.5 104.5v45z" />
    <glyph glyph-name="uni0431" unicode="&#x431;" horiz-adv-x="686" 
d="M68 944q0 245 40.5 367t153.5 186q53 28 123.5 44t216.5 34l43 -166q-122 -11 -186.5 -30.5t-102.5 -51.5q-43 -37 -65 -96.5t-23 -159.5q15 42 66 75.5t119 33.5q89 0 130.5 -66.5t41.5 -202.5v-618q0 -309 -279 -309q-278 0 -278 309v651zM420 848q0 70 -16 103.5
t-56 33.5q-39 0 -57.5 -35.5t-18.5 -122.5v-534q0 -115 74 -115t74 115v555z" />
    <glyph glyph-name="uni0432" unicode="&#x432;" horiz-adv-x="704" 
d="M70 0v1161h333q119 0 178.5 -58t59.5 -183v-129q0 -154 -135 -197q76 -28 113.5 -75t37.5 -130v-147q0 -122 -59.5 -182t-157.5 -60h-370zM436 852q0 64 -20 89.5t-66 25.5h-76v-281h76q45 0 65.5 26.5t20.5 88.5v51zM453 379q0 115 -103 115h-76v-297h95q44 0 64 25
t20 89v68z" />
    <glyph glyph-name="uni0433" unicode="&#x433;" horiz-adv-x="622" 
d="M70 0v1161h536v-190h-332v-971h-204z" />
    <glyph glyph-name="uni0434" unicode="&#x434;" horiz-adv-x="808" 
d="M596 -197v197h-371v-197h-207v373q50 20 76.5 58.5t30.5 107.5l31 817h555v-969h75v-387h-190zM506 971h-148l-24 -604q-5 -64 -20 -105t-50 -72h242v781z" />
    <glyph glyph-name="uni0435" unicode="&#x435;" horiz-adv-x="669" 
d="M618 311q0 -171 -67 -249t-209 -78q-146 0 -213.5 79.5t-67.5 247.5v539q0 168 67.5 248t213.5 80q142 0 209 -78.5t67 -249.5v-356h-352v-158q0 -87 16 -121.5t58 -34.5t58 34.5t16 121.5v47h204v-72zM414 827q0 87 -16 121.5t-58 34.5t-58 -34.5t-16 -121.5v-141h148
v141z" />
    <glyph glyph-name="uni0436" unicode="&#x436;" horiz-adv-x="1015" 
d="M780 0q0 295 -168 594q168 282 168 567h209q0 -285 -160 -561q158 -302 158 -600h-207zM406 0v1161h204v-1161h-204zM29 0q0 300 157 600q-159 274 -159 561h209q0 -286 167 -567q-167 -297 -167 -594h-207z" />
    <glyph glyph-name="uni0437" unicode="&#x437;" horiz-adv-x="649" 
d="M598 287q0 -303 -283 -303q-141 0 -207.5 78.5t-66.5 248.5v62h205v-37q0 -88 15.5 -122t57.5 -34t58 34.5t16 121.5v22q0 40 -14.5 69t-37.5 42.5t-43 19t-38 5.5q-58 0 -113 -2v196q55 -2 111 -2q17 0 37 5.5t43.5 18.5t39 42t15.5 69v31q-2 73 -17.5 102t-56.5 29
q-42 0 -57.5 -30.5t-15.5 -104.5v-10h-205v12q0 167 66.5 247.5t203.5 80.5q143 0 215 -76.5t72 -210.5v-33q0 -49 -1.5 -77.5t-9.5 -63.5t-23.5 -56t-43.5 -40.5t-69 -30.5q35 -11 60 -25t41 -34t25.5 -39t14 -50t5.5 -55t1 -65v-35z" />
    <glyph glyph-name="uni0438" unicode="&#x438;" horiz-adv-x="749" 
d="M475 0l4 639l-219 -639h-190v1161h204l-4 -639l219 639h191v-1161h-205z" />
    <glyph glyph-name="uni0439" unicode="&#x439;" horiz-adv-x="749" 
d="M475 0l4 639l-219 -639h-190v1161h204l-4 -639l219 639h191v-1161h-205zM608 1536q-9 -254 -239 -254q-237 0 -240 254h115q4 -109 125 -109q65 0 92.5 30t32.5 79h114z" />
    <glyph glyph-name="uni043A" unicode="&#x43a;" horiz-adv-x="679" 
d="M444 0q0 295 -168 594q168 282 168 567h209q0 -287 -159 -561q157 -300 157 -600h-207zM70 0v1161h204v-1161h-204z" />
    <glyph glyph-name="uni043B" unicode="&#x43b;" horiz-adv-x="733" 
d="M459 0v971h-148v-678q0 -154 -49 -230.5t-166 -76.5q-49 0 -80 8v166q10 -2 29 -2q36 0 48.5 34.5t12.5 102.5v866h558v-1161h-205z" />
    <glyph glyph-name="uni043C" unicode="&#x43c;" horiz-adv-x="921" 
d="M647 0l4 649l-151 -649h-78l-152 649l4 -649h-204v1161h233l158 -647l157 647h234v-1161h-205z" />
    <glyph glyph-name="uni043D" unicode="&#x43d;" horiz-adv-x="696" 
d="M422 0v496h-148v-496h-204v1161h204v-475h148v475h205v-1161h-205z" />
    <glyph glyph-name="uni043E" unicode="&#x43e;" horiz-adv-x="679" 
d="M618 311q0 -171 -67 -249t-209 -78q-146 0 -213.5 79.5t-67.5 247.5v539q0 168 67.5 248t213.5 80q142 0 209 -78.5t67 -249.5v-539zM414 827q0 87 -16 121.5t-58 34.5t-58 -34.5t-16 -121.5v-491q0 -87 16 -121.5t58 -34.5t58 34.5t16 121.5v491z" />
    <glyph glyph-name="uni043F" unicode="&#x43f;" horiz-adv-x="696" 
d="M422 0v971h-148v-971h-204v1161h557v-1161h-205z" />
    <glyph glyph-name="uni0440" unicode="&#x440;" horiz-adv-x="690" 
d="M70 -408v1569h176l18 -94q14 22 26 36.5t34.5 34t55 30t73.5 10.5q102 0 138 -73t36 -247v-555q0 -175 -36 -247t-140 -72q-39 0 -69 8.5t-51 25.5t-32.5 30.5t-24.5 33.5v-490h-204zM422 827q0 87 -16 121.5t-58 34.5t-58 -34.5t-16 -121.5v-493q0 -87 16 -121.5
t58 -34.5t58 34.5t16 121.5v493z" />
    <glyph glyph-name="uni0441" unicode="&#x441;" horiz-adv-x="665" 
d="M618 311q0 -171 -67 -249t-209 -78q-146 0 -213.5 79.5t-67.5 247.5v539q0 168 67.5 248t213.5 80q142 0 209 -78.5t67 -249.5v-115h-204v92q0 87 -16 121.5t-58 34.5t-58 -34.5t-16 -121.5v-491q0 -87 16 -121.5t58 -34.5t58 34.5t16 121.5v119h204v-144z" />
    <glyph glyph-name="uni0442" unicode="&#x442;" horiz-adv-x="612" 
d="M203 0v971h-187v190h580v-190h-188v-971h-205z" />
    <glyph glyph-name="uni0443" unicode="&#x443;" horiz-adv-x="641" 
d="M178 -410l62 332l-244 1239h213l117 -823l90 823h213l-238 -1571h-213z" />
    <glyph glyph-name="uni0444" unicode="&#x444;" horiz-adv-x="950" 
d="M375 -406v394q-322 29 -322 360v467q0 332 322 361v393h200v-393q322 -29 322 -361v-467q0 -331 -322 -360v-394h-200zM375 977q-117 -19 -117 -168v-455q0 -149 117 -168v791zM692 809q0 149 -117 168v-791q117 19 117 168v455z" />
    <glyph glyph-name="uni0445" unicode="&#x445;" horiz-adv-x="655" 
d="M444 0l-125 387l-108 -387h-201l193 594l-191 567h203l113 -352l108 352h207l-199 -569l203 -592h-203z" />
    <glyph glyph-name="uni0446" unicode="&#x446;" horiz-adv-x="780" 
d="M569 -197v197h-499v1161h204v-971h148v971h205v-971h133v-387h-191z" />
    <glyph glyph-name="uni0447" unicode="&#x447;" horiz-adv-x="673" 
d="M604 0h-205v526q-14 -21 -24.5 -33.5t-31.5 -30t-51 -26t-69 -8.5q-102 0 -139 73.5t-37 246.5v413h205v-383q0 -87 16 -121t58 -34t57.5 34t15.5 121v383h205v-1161z" />
    <glyph glyph-name="uni0448" unicode="&#x448;" horiz-adv-x="1028" 
d="M958 0h-888v1161h204v-971h138v971h204v-971h138v971h204v-1161z" />
    <glyph glyph-name="uni0449" unicode="&#x449;" horiz-adv-x="1112" 
d="M901 -197v197h-831v1161h204v-971h138v971h204v-971h138v971h204v-971h134v-387h-191z" />
    <glyph glyph-name="uni044A" unicode="&#x44a;" horiz-adv-x="921" 
d="M328 0v971h-312v190h516v-450h146q92 0 149.5 -58t57.5 -184v-227q0 -126 -62 -184t-155 -58h-340zM680 403q0 115 -74 115h-74v-323h74q74 0 74 114v94z" />
    <glyph glyph-name="uni044B" unicode="&#x44b;" horiz-adv-x="1034" 
d="M422 403q0 115 -74 115h-74v-323h74q74 0 74 114v94zM70 0v1161h204v-450h146q92 0 149.5 -58t57.5 -184v-227q0 -126 -62 -184t-155 -58h-340zM760 0v1161h205v-1161h-205z" />
    <glyph glyph-name="uni044C" unicode="&#x44c;" horiz-adv-x="663" 
d="M422 403q0 115 -74 115h-74v-323h74q74 0 74 114v94zM70 0v1161h204v-450h146q92 0 149.5 -58t57.5 -184v-227q0 -126 -62 -184t-155 -58h-340z" />
    <glyph glyph-name="uni044D" unicode="&#x44d;" horiz-adv-x="659" 
d="M598 311q0 -168 -67.5 -247.5t-213.5 -79.5q-142 0 -209 78t-67 249v62h205v-37q0 -88 15.5 -122t57.5 -34t58 34.5t16 121.5v160h-307v190h307v141q0 87 -16 121.5t-58 34.5t-57.5 -34t-15.5 -122v-10h-205v33q0 171 67 249.5t209 78.5q146 0 213.5 -80t67.5 -248v-539z
" />
    <glyph glyph-name="uni044E" unicode="&#x44e;" horiz-adv-x="1046" 
d="M70 0v1161h204v-475h154v164q0 168 67.5 248t213.5 80q142 0 209 -78.5t67 -249.5v-539q0 -171 -67 -249t-209 -78q-146 0 -213.5 79.5t-67.5 247.5v185h-154v-496h-204zM780 827q0 88 -15.5 122t-57.5 34t-58 -34.5t-16 -121.5v-491q0 -87 16 -121.5t58 -34.5t57.5 34
t15.5 122v491z" />
    <glyph glyph-name="uni044F" unicode="&#x44f;" horiz-adv-x="679" 
d="M406 0v455h-66l-127 -455h-190l137 475q-107 53 -107 221v224q0 126 62 183.5t155 57.5h340v-1161h-204zM406 967h-74q-74 0 -74 -115v-90q0 -115 74 -115h74v320z" />
    <glyph glyph-name="uni0451" unicode="&#x451;" horiz-adv-x="669" 
d="M618 311q0 -171 -67 -249t-209 -78q-146 0 -213.5 79.5t-67.5 247.5v539q0 168 67.5 248t213.5 80q142 0 209 -78.5t67 -249.5v-356h-352v-158q0 -87 16 -121.5t58 -34.5t58 34.5t16 121.5v47h204v-72zM414 827q0 87 -16 121.5t-58 34.5t-58 -34.5t-16 -121.5v-141h148
v141zM166 1284q-51 0 -87 35t-36 88q0 50 36.5 85.5t86.5 35.5q51 0 86 -35t35 -86q0 -53 -34.5 -88t-86.5 -35zM514 1284q-50 0 -85.5 35t-35.5 88q0 51 35.5 86t85.5 35q54 0 88.5 -35t34.5 -86q0 -54 -34.5 -88.5t-88.5 -34.5z" />
    <glyph glyph-name="uni0452" unicode="&#x452;" 
d="M287 -252q14 -2 32 -2q62 0 82.5 36.5t20.5 121.5v923q0 87 -16 121.5t-58 34.5t-58 -34.5t-16 -121.5v-827h-204v1315h-70v145h70v109h204v-109h236v-145h-236v-236q19 28 34.5 45.5t54 35.5t88.5 18q104 0 140 -72.5t36 -247.5v-977q0 -166 -57 -236.5t-193 -70.5
q-45 0 -90 10v164z" />
    <glyph glyph-name="uni0453" unicode="&#x453;" horiz-adv-x="622" 
d="M70 0v1161h536v-190h-332v-971h-204zM238 1305l116 268h228l-195 -268h-149z" />
    <glyph glyph-name="uni0454" unicode="&#x454;" horiz-adv-x="659" 
d="M618 311q0 -171 -67 -249t-209 -78q-146 0 -213.5 79.5t-67.5 247.5v539q0 168 67.5 248t213.5 80q142 0 209 -78.5t67 -249.5v-33h-204v10q0 87 -16 121.5t-58 34.5t-58 -34.5t-16 -121.5v-141h307v-190h-307v-160q0 -87 16 -121.5t58 -34.5t58 34.5t16 121.5v37h204
v-62z" />
    <glyph glyph-name="uni0455" unicode="&#x455;" horiz-adv-x="669" 
d="M250 334q0 -81 19 -118.5t67 -37.5q82 0 82 103q0 51 -20.5 92t-53.5 70.5t-72.5 57.5t-79.5 61.5t-73 74t-53.5 102.5t-20.5 140q0 299 295 299q148 0 215.5 -77.5t67.5 -250.5v-76h-205v53q0 88 -17 122t-65 34q-49 0 -66.5 -27.5t-17.5 -76.5q0 -56 20.5 -99.5
t53 -72.5t72 -56t79.5 -58t72.5 -69t53 -100t20.5 -141q0 -299 -291 -299q-148 0 -217.5 79t-69.5 244v76h205v-49z" />
    <glyph glyph-name="uni0456" unicode="&#x456;" horiz-adv-x="344" 
d="M70 0v1161h204v-1161h-204zM172 1280q-54 0 -91.5 37.5t-37.5 91.5t37.5 91.5t91.5 37.5t91.5 -37.5t37.5 -91.5t-37.5 -91.5t-91.5 -37.5z" />
    <glyph glyph-name="uni0457" unicode="&#x457;" horiz-adv-x="344" 
d="M70 0v1161h204v-1161h-204zM-2 1284q-51 0 -87 35t-36 88q0 50 36.5 85.5t86.5 35.5q51 0 86 -35t35 -86q0 -53 -34.5 -88t-86.5 -35zM346 1284q-50 0 -85.5 35t-35.5 88q0 51 35.5 86t85.5 35q54 0 88.5 -35t34.5 -86q0 -54 -34.5 -88.5t-88.5 -34.5z" />
    <glyph glyph-name="uni0458" unicode="&#x458;" horiz-adv-x="344" 
d="M-66 -252q14 -2 33 -2q62 0 82.5 36.5t20.5 121.5v1257h204v-1280q0 -166 -56.5 -236.5t-192.5 -70.5q-46 0 -91 10v164zM172 1280q-54 0 -91.5 37.5t-37.5 91.5t37.5 91.5t91.5 37.5t91.5 -37.5t37.5 -91.5t-37.5 -91.5t-91.5 -37.5z" />
    <glyph glyph-name="uni0459" unicode="&#x459;" horiz-adv-x="1052" 
d="M459 0v971h-148v-678q0 -154 -49 -230.5t-166 -76.5q-49 0 -80 8v166q10 -2 29 -2q36 0 48.5 34.5t12.5 102.5v866h558v-450h145q92 0 149.5 -58t57.5 -184v-227q0 -126 -62 -184t-155 -58h-340zM811 403q0 115 -74 115h-73v-323h73q74 0 74 114v94z" />
    <glyph glyph-name="uni045A" unicode="&#x45a;" horiz-adv-x="1015" 
d="M422 0v518h-148v-518h-204v1161h204v-452h148v452h205v-450h145q92 0 149.5 -58t57.5 -184v-227q0 -126 -62 -184t-155 -58h-340zM774 403q0 115 -74 115h-73v-323h73q74 0 74 114v94z" />
    <glyph glyph-name="uni045B" unicode="&#x45b;" 
d="M422 0v827q0 87 -16 121.5t-58 34.5t-58 -34.5t-16 -121.5v-827h-204v1315h-70v145h70v109h204v-109h236v-145h-236v-236q19 28 34.5 45.5t54 35.5t88.5 18q104 0 140 -72.5t36 -247.5v-858h-205z" />
    <glyph glyph-name="uni045C" unicode="&#x45c;" horiz-adv-x="679" 
d="M444 0q0 295 -168 594q168 282 168 567h209q0 -287 -159 -561q157 -300 157 -600h-207zM70 0v1161h204v-1161h-204zM236 1305l116 268h228l-195 -268h-149z" />
    <glyph glyph-name="uni045E" unicode="&#x45e;" horiz-adv-x="641" 
d="M178 -410l62 332l-244 1239h213l117 -823l90 823h213l-238 -1571h-213zM555 1536q-9 -254 -240 -254q-236 0 -239 254h114q4 -109 125 -109q65 0 92.5 30t32.5 79h115z" />
    <glyph glyph-name="uni045F" unicode="&#x45f;" horiz-adv-x="696" 
d="M254 -197v197h-184v1161h204v-971h148v971h205v-1161h-183v-197h-190z" />
    <glyph glyph-name="uni0490" unicode="&#x490;" horiz-adv-x="657" 
d="M82 0v1569h364v217h197v-416h-352v-1370h-209z" />
    <glyph glyph-name="uni0491" unicode="&#x491;" horiz-adv-x="622" 
d="M70 0v1161h346v197h190v-387h-332v-971h-204z" />
    <glyph glyph-name="uni1E02" unicode="&#x1e02;" horiz-adv-x="790" 
d="M82 0v1569h352q126 0 205.5 -83t79.5 -245v-199q0 -180 -150 -237q92 -34 131 -96.5t39 -155.5v-225q0 -163 -79 -245.5t-205 -82.5h-373zM510 1214q0 85 -27 120.5t-88 35.5h-104v-469h104q61 0 88 35.5t27 120.5v157zM530 547q0 155 -135 155h-104v-503h125
q61 0 87.5 35t26.5 120v193zM381 1702q-51 0 -87 35t-36 88q0 50 36.5 85.5t86.5 35.5q51 0 86 -35t35 -86q0 -53 -35 -88t-86 -35z" />
    <glyph glyph-name="uni1E03" unicode="&#x1e03;" horiz-adv-x="690" 
d="M70 0v1569h204v-490q19 28 34.5 45.5t54 35.5t88.5 18q104 0 140 -72.5t36 -247.5v-555q0 -174 -36 -246.5t-138 -72.5q-53 0 -94.5 20.5t-58.5 40t-36 49.5l-18 -94h-176zM422 827q0 87 -16 121.5t-58 34.5t-58 -34.5t-16 -121.5v-493q0 -87 16 -121.5t58 -34.5t58 34.5
t16 121.5v493zM489 1305q-51 0 -86.5 34.5t-35.5 87.5q0 51 36 86t86 35q51 0 86 -35t35 -86q0 -53 -34.5 -87.5t-86.5 -34.5z" />
    <glyph glyph-name="uni1E0A" unicode="&#x1e0a;" horiz-adv-x="790" 
d="M82 0v1569h352q128 0 206.5 -80t78.5 -248v-913q0 -168 -78.5 -248t-206.5 -80h-352zM510 1214q0 85 -27 120.5t-88 35.5h-104v-1171h104q61 0 88 35t27 120v860zM381 1702q-51 0 -87 35t-36 88q0 50 36.5 85.5t86.5 35.5q51 0 86 -35t35 -86q0 -53 -35 -88t-86 -35z" />
    <glyph glyph-name="uni1E0B" unicode="&#x1e0b;" horiz-adv-x="690" 
d="M444 0l-18 94q-14 -22 -26 -36.5t-34 -34t-54.5 -29.5t-73.5 -10q-102 0 -138.5 73t-36.5 246v555q0 173 37.5 246.5t139.5 73.5q39 0 69 -9t51 -26.5t31.5 -30t24.5 -33.5v490h205v-1569h-177zM416 827q0 87 -16 121.5t-58 34.5t-58 -34.5t-16 -121.5v-493
q0 -87 16 -121.5t58 -34.5t58 34.5t16 121.5v493zM201 1305q-51 0 -87 34.5t-36 87.5q0 50 36.5 85.5t86.5 35.5q51 0 86 -35t35 -86q0 -53 -34.5 -87.5t-86.5 -34.5z" />
    <glyph glyph-name="uni1E1E" unicode="&#x1e1e;" horiz-adv-x="688" 
d="M82 0v1569h561v-199h-352v-479h338v-199h-338v-692h-209zM373 1702q-51 0 -87 35t-36 88q0 50 36.5 85.5t86.5 35.5q51 0 86 -35t35 -86q0 -53 -35 -88t-86 -35z" />
    <glyph glyph-name="uni1E1F" unicode="&#x1e1f;" horiz-adv-x="477" 
d="M127 0v971h-113v190h113v144q0 157 59 221.5t172 64.5q71 0 109 -14v-170q-28 4 -41 4q-57 0 -75.5 -38t-18.5 -122v-90h133v-190h-133v-971h-205zM293 1688q-51 0 -87 34.5t-36 87.5q0 50 36.5 85.5t86.5 35.5q51 0 86 -35t35 -86q0 -53 -34.5 -87.5t-86.5 -34.5z" />
    <glyph glyph-name="uni1E22" unicode="&#x1e22;" horiz-adv-x="811" 
d="M520 0v692h-229v-692h-209v1569h209v-678h229v678h209v-1569h-209zM406 1702q-51 0 -87 35t-36 88q0 50 36.5 85.5t86.5 35.5q51 0 85.5 -35t34.5 -86q0 -54 -34.5 -88.5t-85.5 -34.5z" />
    <glyph glyph-name="uni1E23" unicode="&#x1e23;" 
d="M422 0v827q0 87 -16 121.5t-58 34.5t-58 -34.5t-16 -121.5v-827h-204v1569h204v-490q19 28 34.5 45.5t54 35.5t88.5 18q104 0 140 -72.5t36 -247.5v-858h-205zM489 1305q-51 0 -86.5 34.5t-35.5 87.5q0 51 36 86t86 35q51 0 86 -35t35 -86q0 -53 -34.5 -87.5t-86.5 -34.5
z" />
    <glyph glyph-name="uni1E40" unicode="&#x1e40;" horiz-adv-x="1187" 
d="M897 0l4 1174l-213 -1174h-188l-213 1171l4 -1171h-209v1569h338l174 -1094l174 1094h338v-1569h-209zM594 1702q-51 0 -87 35t-36 88q0 50 36.5 85.5t86.5 35.5q51 0 86 -35t35 -86q0 -53 -34.5 -88t-86.5 -35z" />
    <glyph glyph-name="uni1E41" unicode="&#x1e41;" horiz-adv-x="1046" 
d="M774 0v827q0 87 -16 121.5t-58 34.5t-57.5 -34t-15.5 -122v-827h-205v827q0 87 -16 121.5t-58 34.5t-58 -34.5t-16 -121.5v-827h-204v1161h176l18 -94q14 22 26 36.5t34.5 34t55 30t73.5 10.5q68 0 104.5 -32.5t54.5 -103.5q32 66 77 101t118 35q100 0 136 -73.5
t36 -246.5v-858h-205zM526 1294q-51 0 -87 35t-36 88q0 50 36.5 85.5t86.5 35.5q51 0 86 -35t35 -86q0 -53 -34.5 -88t-86.5 -35z" />
    <glyph glyph-name="uni1E56" unicode="&#x1e56;" horiz-adv-x="759" 
d="M82 0v1569h346q127 0 209 -80.5t82 -247.5v-268q0 -168 -76 -248t-203 -80h-149v-645h-209zM510 1214q0 85 -27 120.5t-88 35.5h-104v-526h104q61 0 88 35t27 120v215zM371 1702q-51 0 -87 35t-36 88q0 50 36.5 85.5t86.5 35.5q51 0 86 -35t35 -86q0 -53 -35 -88t-86 -35
z" />
    <glyph glyph-name="uni1E57" unicode="&#x1e57;" horiz-adv-x="690" 
d="M70 -408v1569h176l18 -94q14 22 26 36.5t34.5 34t55 30t73.5 10.5q102 0 138 -73t36 -247v-555q0 -175 -36 -247t-140 -72q-39 0 -69 8.5t-51 25.5t-32.5 30.5t-24.5 33.5v-490h-204zM422 827q0 87 -16 121.5t-58 34.5t-58 -34.5t-16 -121.5v-493q0 -87 16 -121.5
t58 -34.5t58 34.5t16 121.5v493zM344 1294q-51 0 -87 35t-36 88q0 50 36.5 85.5t86.5 35.5q51 0 86 -35t35 -86q0 -53 -34.5 -88t-86.5 -35z" />
    <glyph glyph-name="uni1E60" unicode="&#x1e60;" horiz-adv-x="759" 
d="M702 301q0 -164 -87 -246t-236 -82q-148 0 -236 83t-88 245v223h209v-196q0 -80 33.5 -118t81.5 -38t81.5 38t33.5 118v129q0 35 -24 73t-63 73.5t-85.5 74t-93.5 82t-86 89.5t-63 104t-24 118v197q0 111 45.5 186.5t116.5 108t162 32.5q158 0 240.5 -78t82.5 -249v-246
h-208v219q0 80 -33.5 118t-81.5 38t-81.5 -38t-33.5 -118v-131q0 -48 24 -93t63 -81.5t85.5 -73t93 -75t85.5 -79.5t63 -95t24 -113v-199zM379 1702q-51 0 -87 35t-36 88q0 50 36.5 85.5t86.5 35.5q51 0 86 -35t35 -86q0 -53 -35 -88t-86 -35z" />
    <glyph glyph-name="uni1E61" unicode="&#x1e61;" horiz-adv-x="661" 
d="M246 334q0 -81 19 -118.5t67 -37.5q82 0 82 103q0 51 -20.5 92t-53.5 70.5t-72.5 57.5t-79.5 61.5t-73 74t-53.5 102.5t-20.5 140q0 299 295 299q148 0 215 -77.5t67 -250.5v-76h-204v53q0 88 -17 122t-65 34q-49 0 -66.5 -27.5t-17.5 -76.5q0 -56 20.5 -99.5t53 -72.5
t72 -56t79 -58t72 -69t53 -100t20.5 -141q0 -299 -290 -299q-148 0 -217.5 79t-69.5 244v76h205v-49zM330 1294q-51 0 -87 35t-36 88q0 50 36.5 85.5t86.5 35.5q51 0 86 -35t35 -86q0 -53 -34.5 -88t-86.5 -35z" />
    <glyph glyph-name="uni1E6A" unicode="&#x1e6a;" horiz-adv-x="630" 
d="M211 0v1370h-195v199h598v-199h-194v-1370h-209zM315 1702q-50 0 -86 35t-36 88q0 51 36 86t86 35q51 0 86 -35t35 -86q0 -53 -35 -88t-86 -35z" />
    <glyph glyph-name="uni1E6B" unicode="&#x1e6b;" horiz-adv-x="473" 
d="M449 -6q-52 -10 -82 -10q-142 0 -200 69.5t-58 237.5v680h-93v190h93v287h204v-287h133v-190h-133v-647q0 -83 19 -121.5t76 -38.5q13 0 41 4v-174zM217 1561q-51 0 -87 34.5t-36 87.5q0 50 36.5 85.5t86.5 35.5q51 0 86 -35t35 -86q0 -53 -34.5 -87.5t-86.5 -34.5z" />
    <glyph glyph-name="Wgrave" unicode="&#x1e80;" horiz-adv-x="1251" 
d="M1061 0h-297l-139 1266l-138 -1266h-297l-172 1569h209l117 -1213l135 1213h293l135 -1213l117 1213h209zM567 1712l-194 268h227l117 -268h-150z" />
    <glyph glyph-name="wgrave" unicode="&#x1e81;" horiz-adv-x="1052" 
d="M610 0l-84 834l-84 -834h-268l-158 1161h213l93 -885l94 885h221l94 -885l92 885h213l-157 -1161h-269zM481 1305l-194 268h227l117 -268h-150z" />
    <glyph glyph-name="Wacute" unicode="&#x1e82;" horiz-adv-x="1251" 
d="M1061 0h-297l-139 1266l-138 -1266h-297l-172 1569h209l117 -1213l135 1213h293l135 -1213l117 1213h209zM530 1712l117 268h227l-194 -268h-150z" />
    <glyph glyph-name="wacute" unicode="&#x1e83;" horiz-adv-x="1052" 
d="M610 0l-84 834l-84 -834h-268l-158 1161h213l93 -885l94 885h221l94 -885l92 885h213l-157 -1161h-269zM434 1305l117 268h227l-194 -268h-150z" />
    <glyph glyph-name="Wdieresis" unicode="&#x1e84;" horiz-adv-x="1251" 
d="M1061 0h-297l-139 1266l-138 -1266h-297l-172 1569h209l117 -1213l135 1213h293l135 -1213l117 1213h209zM451 1692q-51 0 -87 35t-36 88q0 50 36.5 85t86.5 35q51 0 85.5 -34.5t34.5 -85.5q0 -54 -34.5 -88.5t-85.5 -34.5zM799 1692q-50 0 -85.5 35t-35.5 88
q0 51 35.5 85.5t85.5 34.5q54 0 88.5 -34.5t34.5 -85.5q0 -54 -34.5 -88.5t-88.5 -34.5z" />
    <glyph glyph-name="wdieresis" unicode="&#x1e85;" horiz-adv-x="1052" 
d="M610 0l-84 834l-84 -834h-268l-158 1161h213l93 -885l94 885h221l94 -885l92 885h213l-157 -1161h-269zM350 1284q-51 0 -87 35t-36 88q0 50 36.5 85.5t86.5 35.5q51 0 86 -35t35 -86q0 -53 -34.5 -88t-86.5 -35zM698 1284q-50 0 -85 35t-35 88q0 51 35 86t85 35
q54 0 88.5 -35t34.5 -86q0 -54 -34.5 -88.5t-88.5 -34.5z" />
    <glyph glyph-name="Ygrave" unicode="&#x1ef2;" horiz-adv-x="731" 
d="M260 0v545l-260 1024h211l154 -711l157 711h211l-264 -1022v-547h-209zM315 1712l-194 268h227l117 -268h-150z" />
    <glyph glyph-name="ygrave" unicode="&#x1ef3;" horiz-adv-x="647" 
d="M184 -410l62 332l-244 1239h213l117 -823l90 823h213l-238 -1571h-213zM289 1305l-195 268h228l116 -268h-149z" />
    <glyph glyph-name="endash" unicode="&#x2013;" horiz-adv-x="647" 
d="M66 500v196h516v-196h-516z" />
    <glyph glyph-name="emdash" unicode="&#x2014;" horiz-adv-x="917" 
d="M66 500v196h786v-196h-786z" />
    <glyph glyph-name="uni2015" unicode="&#x2015;" horiz-adv-x="2179" 
d="M66 500v196h2048v-196h-2048z" />
    <glyph glyph-name="quoteleft" unicode="&#x2018;" horiz-adv-x="409" 
d="M39 1112l205 457h143l-117 -457h-231z" />
    <glyph glyph-name="quoteright" unicode="&#x2019;" horiz-adv-x="399" 
d="M41 1112l117 457h231l-205 -457h-143z" />
    <glyph glyph-name="quotesinglbase" unicode="&#x201a;" horiz-adv-x="473" 
d="M41 -276l115 456h231l-203 -456h-143z" />
    <glyph glyph-name="quotedblleft" unicode="&#x201c;" horiz-adv-x="727" 
d="M356 1112l205 457h144l-117 -457h-232zM39 1112l205 457h143l-117 -457h-231z" />
    <glyph glyph-name="quotedblright" unicode="&#x201d;" horiz-adv-x="716" 
d="M41 1112l117 457h231l-205 -457h-143zM358 1112l117 457h232l-205 -457h-144z" />
    <glyph glyph-name="quotedblbase" unicode="&#x201e;" horiz-adv-x="790" 
d="M41 -276l115 456h231l-203 -456h-143zM358 -276l115 456h232l-203 -456h-144z" />
    <glyph glyph-name="dagger" unicode="&#x2020;" horiz-adv-x="679" 
d="M258 -123l-20 1100l-205 -10v194l215 -10l-21 418h226l-23 -418l217 10v-194l-205 10l-20 -1100h-164z" />
    <glyph glyph-name="daggerdbl" unicode="&#x2021;" horiz-adv-x="704" 
d="M270 -123l-14 606l-211 -8v195l211 -11q-6 71 -6 140q0 99 8 178l-213 -10v194l215 -10l-20 418h225l-23 -418l217 10v-194l-213 10q7 -100 7 -170q0 -62 -7 -148l213 11v-195l-213 8l-12 -606h-164z" />
    <glyph glyph-name="bullet" unicode="&#x2022;" horiz-adv-x="673" 
d="M342 537q-106 0 -181 71t-75 178q0 102 73.5 176t178.5 74q38 0 77.5 -12t79.5 -38.5t65.5 -78t25.5 -121.5q0 -113 -73.5 -181t-170.5 -68z" />
    <glyph glyph-name="onedotenleader" unicode="&#x2024;" horiz-adv-x="352" 
d="M176 -16q-54 0 -91.5 37.5t-37.5 91.5t37.5 91.5t91.5 37.5t91.5 -37.5t37.5 -91.5t-37.5 -91.5t-91.5 -37.5z" />
    <glyph glyph-name="twodotenleader" unicode="&#x2025;" horiz-adv-x="704" 
d="M176 -16q-54 0 -91.5 37.5t-37.5 91.5t37.5 91.5t91.5 37.5t91.5 -37.5t37.5 -91.5t-37.5 -91.5t-91.5 -37.5zM528 -16q-54 0 -91.5 37.5t-37.5 91.5t37.5 91.5t91.5 37.5t91.5 -37.5t37.5 -91.5t-37.5 -91.5t-91.5 -37.5z" />
    <glyph glyph-name="ellipsis" unicode="&#x2026;" horiz-adv-x="1056" 
d="M176 -16q-54 0 -91.5 37.5t-37.5 91.5t37.5 91.5t91.5 37.5t91.5 -37.5t37.5 -91.5t-37.5 -91.5t-91.5 -37.5zM528 -16q-54 0 -91.5 37.5t-37.5 91.5t37.5 91.5t91.5 37.5t91.5 -37.5t37.5 -91.5t-37.5 -91.5t-91.5 -37.5zM881 -16q-54 0 -91.5 37.5t-37.5 91.5
t37.5 91.5t91.5 37.5t91.5 -37.5t37.5 -91.5t-37.5 -91.5t-91.5 -37.5z" />
    <glyph glyph-name="perthousand" unicode="&#x2030;" horiz-adv-x="2129" 
d="M455 0l422 1569h186l-422 -1569h-186zM555 885q0 -174 -58.5 -251t-197.5 -77q-143 0 -201.5 78t-58.5 250v368q0 172 58.5 250t201.5 78q139 0 197.5 -77t58.5 -251v-368zM371 1231q0 87 -16 121t-58 34t-58 -34t-16 -121v-324q0 -87 16 -121t58 -34t58 34t16 121v324z
M1473 309q0 -174 -58.5 -250.5t-197.5 -76.5q-143 0 -202 77.5t-59 249.5v369q0 172 59 250t202 78q139 0 197.5 -77t58.5 -251v-369zM1288 655q0 87 -16 121.5t-58 34.5t-57.5 -34t-15.5 -122v-323q0 -88 15.5 -122t57.5 -34t58 34.5t16 121.5v323zM2091 309
q0 -174 -58.5 -250.5t-197.5 -76.5q-143 0 -201.5 77.5t-58.5 249.5v369q0 172 58.5 250t201.5 78q139 0 197.5 -77t58.5 -251v-369zM1907 655q0 87 -16 121.5t-58 34.5t-58 -34.5t-16 -121.5v-323q0 -87 16 -121.5t58 -34.5t58 34.5t16 121.5v323z" />
    <glyph glyph-name="guilsinglleft" unicode="&#x2039;" horiz-adv-x="458" 
d="M188 184l-159 363l159 366h209l-161 -366l161 -363h-209z" />
    <glyph glyph-name="guilsinglright" unicode="&#x203a;" horiz-adv-x="458" 
d="M61 184l162 363l-162 366h209l160 -366l-160 -363h-209z" />
    <glyph glyph-name="fraction" unicode="&#x2044;" horiz-adv-x="569" 
d="M-10 0l422 1569h166l-422 -1569h-166z" />
    <glyph glyph-name="foursuperior" unicode="&#x2074;" horiz-adv-x="538" 
d="M274 786v148h-239v141l158 496h239v-496h68v-141h-68v-148h-158zM274 1427l-88 -352h88v352z" />
    <glyph glyph-name="Euro" unicode="&#x20ac;" horiz-adv-x="837" 
d="M786 301q0 -86 -25.5 -150.5t-71 -102.5t-102.5 -56.5t-124 -18.5t-124.5 19t-102.5 57.5t-71 103t-26 148.5v219h-98v197h98v131h-100v196h100v224q0 111 45.5 186.5t116.5 108t162 32.5q69 0 124.5 -16t101.5 -51t71.5 -97.5t25.5 -148.5v-117h-208v76q0 80 -33.5 118
t-81.5 38t-81.5 -38t-33.5 -118v-197h309v-196h-309v-131h311v-197h-311v-192q0 -80 33.5 -118t81.5 -38t81.5 38t33.5 118v53h208v-80z" />
    <glyph glyph-name="uni2116" unicode="&#x2116;" horiz-adv-x="1529" 
d="M578 0l-271 1047v-1047h-209v1569h264l281 -1065v1065h209v-1569h-274zM1483 854q0 -174 -58.5 -251t-197.5 -77q-143 0 -201.5 78t-58.5 250v184q0 172 58.5 250t201.5 78q139 0 197.5 -77t58.5 -251v-184zM993 201v176h471v-176h-471zM1298 1016q0 87 -15.5 121
t-57.5 34t-58 -34t-16 -121v-139q0 -87 16 -121.5t58 -34.5t57.5 34t15.5 122v139z" />
    <glyph glyph-name="Omega" unicode="&#x2126;" horiz-adv-x="794" 
d="M428 0v217q84 24 84 152v872q0 78 -32 117t-83 39q-50 0 -82 -39t-32 -117v-872q0 -128 84 -152v-217h-310v201l187 -13q-94 28 -132 99.5t-38 204.5v776q0 93 30 160.5t80.5 102t102.5 49.5t110 15q324 0 324 -327v-776q0 -133 -38 -204.5t-132 -99.5l186 13v-201h-309z
" />
    <glyph glyph-name="angstrom" unicode="&#x212b;" horiz-adv-x="784" 
d="M549 0l-41 348h-232l-40 -348h-209l227 1546q-41 47 -41 117q0 75 51.5 126.5t126.5 51.5t126.5 -51.5t51.5 -126.5q0 -68 -43 -117l232 -1546h-209zM391 1350l-92 -803h184zM455 1663q0 29 -17.5 46t-46.5 17t-46 -17t-17 -46t17 -46.5t46 -17.5t46.5 17.5t17.5 46.5z
" />
    <glyph glyph-name="onethird" unicode="&#x2153;" horiz-adv-x="1157" 
d="M158 786v611l-127 -60v158l149 76h146v-785h-168zM1114 168q0 -83 -54.5 -132.5t-164.5 -49.5q-112 0 -165.5 49.5t-53.5 132.5v49h166v-18q0 -72 53 -72q51 0 51 72v61q0 38 -19 51t-59 13q-16 0 -41 -2v141q23 -2 39 -2q41 0 60.5 11.5t19.5 49.5v60q0 71 -51 71
q-53 0 -53 -71v-23h-166v53q0 83 54 133t165 50q110 0 164.5 -50t54.5 -133v-75q0 -53 -17 -87t-63 -53q80 -28 80 -159v-70zM229 0l422 1569h166l-422 -1569h-166z" />
    <glyph glyph-name="twothirds" unicode="&#x2154;" horiz-adv-x="1259" 
d="M43 786v109q0 49 28 94t67.5 79t79 67t67.5 72t28 79v82q0 72 -53 72t-53 -72v-88h-164v100q0 89 51.5 146t165.5 57q117 0 169 -57.5t52 -145.5v-104q0 -54 -24 -100.5t-57.5 -78t-67.5 -59t-58 -54t-24 -50.5h215v-148h-422zM1225 168q0 -83 -54.5 -132.5t-164.5 -49.5
q-112 0 -166 49.5t-54 132.5v49h166v-18q0 -72 54 -72q51 0 51 72v61q0 38 -19 51t-59 13q-16 0 -41 -2v141q23 -2 39 -2q41 0 60.5 11.5t19.5 49.5v60q0 71 -51 71q-54 0 -54 -71v-23h-166v53q0 83 54 133t166 50q110 0 164.5 -50t54.5 -133v-75q0 -53 -17 -87t-63 -53
q80 -28 80 -159v-70zM340 0l422 1569h166l-422 -1569h-166z" />
    <glyph glyph-name="Delta" unicode="&#x2206;" horiz-adv-x="792" 
d="M31 0l211 1569h307l213 -1569h-731zM395 1350l-133 -1151h266z" />
    <glyph glyph-name="product" unicode="&#x220f;" horiz-adv-x="843" 
d="M537 -205v1575h-230v-1575h-209v1774h647v-1774h-208z" />
    <glyph glyph-name="summation" unicode="&#x2211;" horiz-adv-x="645" 
d="M39 -246v199l244 729l-244 688v199h565v-199h-350l242 -688l-242 -729h350v-199h-565z" />
    <glyph glyph-name="minus" unicode="&#x2212;" horiz-adv-x="864" 
d="M41 647v193h782v-193h-782z" />
    <glyph glyph-name="notequal" unicode="&#x2260;" horiz-adv-x="864" 
d="M461 471l-60 -242h-194l59 242h-225v193h274l39 155h-313v193h360l62 241h194l-61 -241h227v-193h-274l-39 -155h313v-193h-362z" />
    <glyph glyph-name="commaaccent" unicode="&#xf6c3;" horiz-adv-x="444" 
d="M70 -422l108 320h217l-170 -320h-155z" />
    <glyph glyph-name="apple" unicode="&#xf8ff;" horiz-adv-x="2060" 
d="M823 0l-205 1030l412 406l414 -406l-207 -1030h-414zM371 0l-269 350l177 334l339 -168l105 -516h-352zM1339 0l105 516l338 168l176 -334l-266 -350h-353z" />
    <glyph glyph-name="A.uni" horiz-adv-x="786" 
d="M520 0l-10 98q-70 -125 -219 -125q-232 0 -232 267v356q0 266 232 266q139 0 209 -108v487q0 80 -33.5 118t-81.5 38t-81.5 -38t-33.5 -118v-217h-209v258q0 69 17.5 123.5t46.5 89.5t70 58t86 32.5t96 9.5q149 0 240.5 -81t91.5 -246v-1268h-189zM498 489
q0 177 -121 177q-109 0 -109 -177v-143q0 -103 31 -139.5t78 -36.5q121 0 121 176v143z" />
    <glyph glyph-name="AE.uni" horiz-adv-x="1228" 
d="M1167 301q0 -165 -89 -246.5t-242 -81.5q-224 0 -301 158q-48 -88 -107.5 -123t-136.5 -35q-232 0 -232 267v356q0 266 232 266q139 0 209 -108v487q0 80 -33.5 118t-81.5 38t-81.5 -38t-33.5 -118v-217h-209v258q0 69 17.5 123.5t46.5 89.5t70 58t86 32.5t96 9.5
q152 0 227 -92q80 92 232 92q70 0 128 -18.5t104.5 -56t72.5 -102t26 -150.5v-533h-458v-407q0 -81 34.5 -118.5t90.5 -37.5t90 37.5t34 118.5v196h209v-223zM958 1241q0 81 -34 118.5t-90 37.5q-55 0 -90 -33.5t-35 -106.5v-323h249v307zM498 489q0 177 -121 177
q-109 0 -109 -177v-143q0 -103 31 -139.5t78 -36.5q121 0 121 176v143z" />
    <glyph glyph-name="AEacute.uni" horiz-adv-x="1228" 
d="M510 1712l117 268h227l-195 -268h-149zM1167 301q0 -165 -89 -246.5t-242 -81.5q-224 0 -301 158q-48 -88 -107.5 -123t-136.5 -35q-232 0 -232 267v356q0 266 232 266q139 0 209 -108v487q0 80 -33.5 118t-81.5 38t-81.5 -38t-33.5 -118v-217h-209v258q0 69 17.5 123.5
t46.5 89.5t70 58t86 32.5t96 9.5q152 0 227 -92q80 92 232 92q70 0 128 -18.5t104.5 -56t72.5 -102t26 -150.5v-533h-458v-407q0 -81 34.5 -118.5t90.5 -37.5t90 37.5t34 118.5v196h209v-223zM958 1241q0 81 -34 118.5t-90 37.5q-55 0 -90 -33.5t-35 -106.5v-323h249v307z
M498 489q0 177 -121 177q-109 0 -109 -177v-143q0 -103 31 -139.5t78 -36.5q121 0 121 176v143z" />
    <glyph glyph-name="Aacute.uni" horiz-adv-x="786" 
d="M520 0l-10 98q-70 -125 -219 -125q-232 0 -232 267v356q0 266 232 266q139 0 209 -108v487q0 80 -33.5 118t-81.5 38t-81.5 -38t-33.5 -118v-217h-209v258q0 69 17.5 123.5t46.5 89.5t70 58t86 32.5t96 9.5q149 0 240.5 -81t91.5 -246v-1268h-189zM498 489
q0 177 -121 177q-109 0 -109 -177v-143q0 -103 31 -139.5t78 -36.5q121 0 121 176v143zM293 1712l117 268h227l-195 -268h-149z" />
    <glyph glyph-name="Abreve.uni" horiz-adv-x="786" 
d="M520 0l-10 98q-70 -125 -219 -125q-232 0 -232 267v356q0 266 232 266q139 0 209 -108v487q0 80 -33.5 118t-81.5 38t-81.5 -38t-33.5 -118v-217h-209v258q0 69 17.5 123.5t46.5 89.5t70 58t86 32.5t96 9.5q149 0 240.5 -81t91.5 -246v-1268h-189zM498 489
q0 177 -121 177q-109 0 -109 -177v-143q0 -103 31 -139.5t78 -36.5q121 0 121 176v143zM623 1944q-9 -254 -240 -254q-237 0 -240 254h115q4 -109 125 -109q65 0 92.5 30t32.5 79h115z" />
    <glyph glyph-name="Acircumflex.uni" horiz-adv-x="786" 
d="M520 0l-10 98q-70 -125 -219 -125q-232 0 -232 267v356q0 266 232 266q139 0 209 -108v487q0 80 -33.5 118t-81.5 38t-81.5 -38t-33.5 -118v-217h-209v258q0 69 17.5 123.5t46.5 89.5t70 58t86 32.5t96 9.5q149 0 240.5 -81t91.5 -246v-1268h-189zM498 489
q0 177 -121 177q-109 0 -109 -177v-143q0 -103 31 -139.5t78 -36.5q121 0 121 176v143zM473 1712l-92 158l-82 -158h-166l154 289h184l162 -289h-160z" />
    <glyph glyph-name="Adieresis.uni" horiz-adv-x="786" 
d="M520 0l-10 98q-70 -125 -219 -125q-232 0 -232 267v356q0 266 232 266q139 0 209 -108v487q0 80 -33.5 118t-81.5 38t-81.5 -38t-33.5 -118v-217h-209v258q0 69 17.5 123.5t46.5 89.5t70 58t86 32.5t96 9.5q149 0 240.5 -81t91.5 -246v-1268h-189zM498 489
q0 177 -121 177q-109 0 -109 -177v-143q0 -103 31 -139.5t78 -36.5q121 0 121 176v143zM209 1692q-51 0 -87 35t-36 88q0 50 36.5 85t86.5 35q51 0 86 -34.5t35 -85.5q0 -53 -35 -88t-86 -35zM557 1692q-50 0 -85.5 35t-35.5 88q0 51 35.5 85.5t85.5 34.5q54 0 88.5 -34.5
t34.5 -85.5q0 -54 -34.5 -88.5t-88.5 -34.5z" />
    <glyph glyph-name="Agrave.uni" horiz-adv-x="786" 
d="M520 0l-10 98q-70 -125 -219 -125q-232 0 -232 267v356q0 266 232 266q139 0 209 -108v487q0 80 -33.5 118t-81.5 38t-81.5 -38t-33.5 -118v-217h-209v258q0 69 17.5 123.5t46.5 89.5t70 58t86 32.5t96 9.5q149 0 240.5 -81t91.5 -246v-1268h-189zM498 489
q0 177 -121 177q-109 0 -109 -177v-143q0 -103 31 -139.5t78 -36.5q121 0 121 176v143zM334 1712l-195 268h228l116 -268h-149z" />
    <glyph glyph-name="Amacron.uni" horiz-adv-x="786" 
d="M520 0l-10 98q-70 -125 -219 -125q-232 0 -232 267v356q0 266 232 266q139 0 209 -108v487q0 80 -33.5 118t-81.5 38t-81.5 -38t-33.5 -118v-217h-209v258q0 69 17.5 123.5t46.5 89.5t70 58t86 32.5t96 9.5q149 0 240.5 -81t91.5 -246v-1268h-189zM498 489
q0 177 -121 177q-109 0 -109 -177v-143q0 -103 31 -139.5t78 -36.5q121 0 121 176v143zM115 1712v166h536v-166h-536z" />
    <glyph glyph-name="Aogonek.uni" horiz-adv-x="786" 
d="M666 -426q-114 6 -186 71t-72 154q0 118 114 191l-12 108q-70 -125 -219 -125q-232 0 -232 267v356q0 266 232 266q139 0 209 -108v487q0 80 -33.5 118t-81.5 38t-81.5 -38t-33.5 -118v-217h-209v258q0 69 17.5 123.5t46.5 89.5t70 58t86 32.5t96 9.5q149 0 240.5 -81
t91.5 -246v-1268q-58 -37 -88.5 -83.5t-30.5 -92.5q0 -49 37.5 -87.5t109.5 -55.5zM498 489q0 177 -121 177q-109 0 -109 -177v-143q0 -103 31 -139.5t78 -36.5q121 0 121 176v143z" />
    <glyph glyph-name="Aring.uni" horiz-adv-x="786" 
d="M520 0l-10 98q-70 -125 -219 -125q-232 0 -232 267v356q0 266 232 266q139 0 209 -108v487q0 80 -33.5 118t-81.5 38t-81.5 -38t-33.5 -118v-217h-209v258q0 69 17.5 123.5t46.5 89.5t70 58t86 32.5t96 9.5q149 0 240.5 -81t91.5 -246v-1268h-189zM498 489
q0 177 -121 177q-109 0 -109 -177v-143q0 -103 31 -139.5t78 -36.5q121 0 121 176v143zM446 1847q0 29 -17 46.5t-46 17.5t-46.5 -17.5t-17.5 -46.5t17.5 -46t46.5 -17t46 17t17 46zM383 1669q-75 0 -126.5 51.5t-51.5 126.5t51.5 126.5t126.5 51.5t126.5 -51.5t51.5 -126.5
t-51.5 -126.5t-126.5 -51.5z" />
    <glyph glyph-name="Atilde.uni" horiz-adv-x="786" 
d="M520 0l-10 98q-70 -125 -219 -125q-232 0 -232 267v356q0 266 232 266q139 0 209 -108v487q0 80 -33.5 118t-81.5 38t-81.5 -38t-33.5 -118v-217h-209v258q0 69 17.5 123.5t46.5 89.5t70 58t86 32.5t96 9.5q149 0 240.5 -81t91.5 -246v-1268h-189zM498 489
q0 177 -121 177q-109 0 -109 -177v-143q0 -103 31 -139.5t78 -36.5q121 0 121 176v143zM635 1907q-5 -88 -41.5 -141.5t-106.5 -53.5q-34 0 -87.5 19.5t-82.5 19.5q-15 0 -23.5 -2t-17.5 -11.5t-12 -27.5h-133q5 88 41.5 141.5t106.5 53.5q34 0 87.5 -19.5t82.5 -19.5
q13 0 21 1.5t18.5 11t13.5 28.5h133z" />
    <glyph glyph-name="Delta.sc" horiz-adv-x="684" 
d="M14 0l164 1223h328l166 -1223h-658zM342 1028l-100 -835h200z" />
    <glyph glyph-name="E.uni" horiz-adv-x="800" 
d="M739 301q0 -165 -89 -246.5t-242 -81.5q-151 0 -243.5 81.5t-92.5 246.5v967q0 165 93.5 246t242.5 81q70 0 128 -18.5t104.5 -56t72.5 -102t26 -150.5v-533h-458v-407q0 -81 34.5 -118.5t90.5 -37.5t90 37.5t34 118.5v196h209v-223zM530 1241q0 81 -34 118.5t-90 37.5
t-90.5 -37.5t-34.5 -118.5v-307h249v307z" />
    <glyph glyph-name="Eacute.uni" horiz-adv-x="800" 
d="M739 301q0 -165 -89 -246.5t-242 -81.5q-151 0 -243.5 81.5t-92.5 246.5v967q0 165 93.5 246t242.5 81q70 0 128 -18.5t104.5 -56t72.5 -102t26 -150.5v-533h-458v-407q0 -81 34.5 -118.5t90.5 -37.5t90 37.5t34 118.5v196h209v-223zM530 1241q0 81 -34 118.5t-90 37.5
t-90.5 -37.5t-34.5 -118.5v-307h249v307zM305 1712l117 268h227l-194 -268h-150z" />
    <glyph glyph-name="Ebreve.uni" horiz-adv-x="800" 
d="M739 301q0 -165 -89 -246.5t-242 -81.5q-151 0 -243.5 81.5t-92.5 246.5v967q0 165 93.5 246t242.5 81q70 0 128 -18.5t104.5 -56t72.5 -102t26 -150.5v-533h-458v-407q0 -81 34.5 -118.5t90.5 -37.5t90 37.5t34 118.5v196h209v-223zM530 1241q0 81 -34 118.5t-90 37.5
t-90.5 -37.5t-34.5 -118.5v-307h249v307zM645 1944q-9 -254 -239 -254q-237 0 -240 254h115q4 -109 125 -109q65 0 92 29.5t32 79.5h115z" />
    <glyph glyph-name="Ecaron.uni" horiz-adv-x="800" 
d="M739 301q0 -165 -89 -246.5t-242 -81.5q-151 0 -243.5 81.5t-92.5 246.5v967q0 165 93.5 246t242.5 81q70 0 128 -18.5t104.5 -56t72.5 -102t26 -150.5v-533h-458v-407q0 -81 34.5 -118.5t90.5 -37.5t90 37.5t34 118.5v196h209v-223zM530 1241q0 81 -34 118.5t-90 37.5
t-90.5 -37.5t-34.5 -118.5v-307h249v307zM317 1712l-161 289h159l93 -158l81 158h166l-153 -289h-185z" />
    <glyph glyph-name="Ecircumflex.uni" horiz-adv-x="800" 
d="M739 301q0 -165 -89 -246.5t-242 -81.5q-151 0 -243.5 81.5t-92.5 246.5v967q0 165 93.5 246t242.5 81q70 0 128 -18.5t104.5 -56t72.5 -102t26 -150.5v-533h-458v-407q0 -81 34.5 -118.5t90.5 -37.5t90 37.5t34 118.5v196h209v-223zM530 1241q0 81 -34 118.5t-90 37.5
t-90.5 -37.5t-34.5 -118.5v-307h249v307zM496 1712l-93 158l-81 -158h-166l153 289h185l161 -289h-159z" />
    <glyph glyph-name="Edieresis.uni" horiz-adv-x="800" 
d="M739 301q0 -165 -89 -246.5t-242 -81.5q-151 0 -243.5 81.5t-92.5 246.5v967q0 165 93.5 246t242.5 81q70 0 128 -18.5t104.5 -56t72.5 -102t26 -150.5v-533h-458v-407q0 -81 34.5 -118.5t90.5 -37.5t90 37.5t34 118.5v196h209v-223zM530 1241q0 81 -34 118.5t-90 37.5
t-90.5 -37.5t-34.5 -118.5v-307h249v307zM231 1692q-50 0 -86 35t-36 88q0 50 36 85t86 35q51 0 86 -34.5t35 -85.5q0 -53 -35 -88t-86 -35zM580 1692q-50 0 -85.5 35t-35.5 88q0 51 35.5 85.5t85.5 34.5q54 0 88 -34.5t34 -85.5q0 -54 -34 -88.5t-88 -34.5z" />
    <glyph glyph-name="Edotaccent.uni" horiz-adv-x="800" 
d="M739 301q0 -165 -89 -246.5t-242 -81.5q-151 0 -243.5 81.5t-92.5 246.5v967q0 165 93.5 246t242.5 81q70 0 128 -18.5t104.5 -56t72.5 -102t26 -150.5v-533h-458v-407q0 -81 34.5 -118.5t90.5 -37.5t90 37.5t34 118.5v196h209v-223zM530 1241q0 81 -34 118.5t-90 37.5
t-90.5 -37.5t-34.5 -118.5v-307h249v307zM408 1702q-51 0 -87 35t-36 88q0 50 36.5 85.5t86.5 35.5q51 0 85.5 -35t34.5 -86q0 -54 -34.5 -88.5t-85.5 -34.5z" />
    <glyph glyph-name="Egrave.uni" horiz-adv-x="800" 
d="M739 301q0 -165 -89 -246.5t-242 -81.5q-151 0 -243.5 81.5t-92.5 246.5v967q0 165 93.5 246t242.5 81q70 0 128 -18.5t104.5 -56t72.5 -102t26 -150.5v-533h-458v-407q0 -81 34.5 -118.5t90.5 -37.5t90 37.5t34 118.5v196h209v-223zM530 1241q0 81 -34 118.5t-90 37.5
t-90.5 -37.5t-34.5 -118.5v-307h249v307zM356 1712l-194 268h227l117 -268h-150z" />
    <glyph glyph-name="Emacron.uni" horiz-adv-x="800" 
d="M739 301q0 -165 -89 -246.5t-242 -81.5q-151 0 -243.5 81.5t-92.5 246.5v967q0 165 93.5 246t242.5 81q70 0 128 -18.5t104.5 -56t72.5 -102t26 -150.5v-533h-458v-407q0 -81 34.5 -118.5t90.5 -37.5t90 37.5t34 118.5v196h209v-223zM530 1241q0 81 -34 118.5t-90 37.5
t-90.5 -37.5t-34.5 -118.5v-307h249v307zM137 1712v166h537v-166h-537z" />
    <glyph glyph-name="Eng.uni" horiz-adv-x="808" 
d="M401 -393v198h7q48 0 81 38t33 118v1262q0 55 -9.5 92t-26.5 54t-34 23.5t-38 6.5q-121 0 -121 -176v-1223h-211v1569h188l11 -99q70 125 219 125q231 0 231 -266v-1395q0 -86 -25.5 -150.5t-71 -102t-102 -56t-124.5 -18.5h-7z" />
    <glyph glyph-name="Eogonek.uni" horiz-adv-x="800" 
d="M555 -408q-114 6 -186 71.5t-72 154.5q0 88 72 157q-136 8 -216.5 89.5t-80.5 236.5v967q0 165 93.5 246t242.5 81q70 0 128 -18.5t104.5 -56t72.5 -102t26 -150.5v-533h-458v-407q0 -81 34.5 -118.5t90.5 -37.5t90 37.5t34 118.5v196h209v-223q0 -55 -11.5 -101.5
t-26 -75t-38.5 -53.5t-39.5 -36.5t-37.5 -24.5q-107 -69 -107 -160q0 -116 148 -151zM530 1241q0 81 -34 118.5t-90 37.5t-90.5 -37.5t-34.5 -118.5v-307h249v307z" />
    <glyph glyph-name="Euro.sc" horiz-adv-x="768" 
d="M719 219q0 -81 -43 -136.5t-108.5 -79t-147.5 -23.5q-122 0 -208.5 69t-86.5 187v167h-88v156h88v103h-90v155h90v172q0 121 86 188.5t209 67.5q61 0 113.5 -13.5t95 -41t66.5 -74t24 -108.5v-140h-205v72q0 107 -94 107q-39 0 -63.5 -26t-24.5 -83v-121h239v-155h-239
v-103h241v-156h-241v-88q0 -64 27 -100.5t61 -36.5q48 0 70 33.5t22 126.5h207v-119z" />
    <glyph glyph-name="G.alt" horiz-adv-x="800" 
d="M530 655h-139v199h348v-553q0 -167 -92.5 -247.5t-238.5 -80.5q-149 0 -242.5 81.5t-93.5 246.5v967q0 165 92 246t244 81q153 0 242 -81t89 -246v-244h-209v217q0 81 -34 118.5t-90 37.5t-90.5 -37.5t-34.5 -118.5v-913q0 -81 34.5 -118.5t90.5 -37.5t90 37.5t34 118.5
v327z" />
    <glyph glyph-name="Gbreve.alt" horiz-adv-x="800" 
d="M530 655h-139v199h348v-553q0 -167 -92.5 -247.5t-238.5 -80.5q-149 0 -242.5 81.5t-93.5 246.5v967q0 165 92 246t244 81q153 0 242 -81t89 -246v-244h-209v217q0 81 -34 118.5t-90 37.5t-90.5 -37.5t-34.5 -118.5v-913q0 -81 34.5 -118.5t90.5 -37.5t90 37.5t34 118.5
v327zM645 1944q-9 -254 -239 -254q-237 0 -240 254h115q4 -109 125 -109q65 0 92 29.5t32 79.5h115z" />
    <glyph glyph-name="Gcircumflex.alt" horiz-adv-x="800" 
d="M530 655h-139v199h348v-553q0 -167 -92.5 -247.5t-238.5 -80.5q-149 0 -242.5 81.5t-93.5 246.5v967q0 165 92 246t244 81q153 0 242 -81t89 -246v-244h-209v217q0 81 -34 118.5t-90 37.5t-90.5 -37.5t-34.5 -118.5v-913q0 -81 34.5 -118.5t90.5 -37.5t90 37.5t34 118.5
v327zM496 1712l-93 158l-81 -158h-166l153 289h185l161 -289h-159z" />
    <glyph glyph-name="Gcommaaccent.alt" horiz-adv-x="800" 
d="M530 655h-139v199h348v-553q0 -167 -92.5 -247.5t-238.5 -80.5q-149 0 -242.5 81.5t-93.5 246.5v967q0 165 92 246t244 81q153 0 242 -81t89 -246v-244h-209v217q0 81 -34 118.5t-90 37.5t-90.5 -37.5t-34.5 -118.5v-913q0 -81 34.5 -118.5t90.5 -37.5t90 37.5t34 118.5
v327zM240 -422l108 320h217l-170 -320h-155z" />
    <glyph glyph-name="Gdotaccent.alt" horiz-adv-x="800" 
d="M530 655h-139v199h348v-553q0 -167 -92.5 -247.5t-238.5 -80.5q-149 0 -242.5 81.5t-93.5 246.5v967q0 165 92 246t244 81q153 0 242 -81t89 -246v-244h-209v217q0 81 -34 118.5t-90 37.5t-90.5 -37.5t-34.5 -118.5v-913q0 -81 34.5 -118.5t90.5 -37.5t90 37.5t34 118.5
v327zM406 1702q-51 0 -87 35t-36 88q0 50 36.5 85.5t86.5 35.5q51 0 85.5 -35t34.5 -86q0 -54 -34.5 -88.5t-85.5 -34.5z" />
    <glyph glyph-name="IJ.alt" horiz-adv-x="796" 
d="M82 0v1569h209v-1569h-209zM387 -25v199h8q48 0 81.5 38t33.5 118v1239h209v-1266q0 -86 -26 -150.5t-71.5 -102.5t-102 -56.5t-124.5 -18.5h-8z" />
    <glyph glyph-name="J.alt" horiz-adv-x="423" 
d="M14 -25v199h9q48 0 81 38t33 118v1239h209v-1266q0 -86 -25.5 -150.5t-71 -102.5t-102.5 -56.5t-124 -18.5h-9z" />
    <glyph glyph-name="Jcircumflex.alt" horiz-adv-x="423" 
d="M332 1712l-92 158l-82 -158h-166l153 289h185l162 -289h-160zM14 -25v199h9q48 0 81 38t33 118v1239h209v-1266q0 -86 -25.5 -150.5t-71 -102.5t-102.5 -56.5t-124 -18.5h-9z" />
    <glyph glyph-name="Kappa.alt" horiz-adv-x="757" 
d="M541 0q-18 348 -248 784q206 436 209 785h209q0 -358 -197 -778q223 -442 236 -791h-209zM82 0v1569h209v-1569h-209z" />
    <glyph glyph-name="M.uni" horiz-adv-x="1247" 
d="M961 0v1223q0 104 -29.5 140t-77.5 36q-55 0 -89 -39.5t-34 -122.5v-1237h-209v1223q0 55 -9.5 92t-26.5 54t-34 23.5t-38 6.5q-121 0 -121 -176v-1223h-211v1569h188l11 -99q70 125 219 125q163 0 213 -137q70 137 227 137q229 0 229 -266v-1329h-208z" />
    <glyph glyph-name="N.uni" horiz-adv-x="808" 
d="M522 0v1223q0 55 -9.5 92t-26.5 54t-34 23.5t-38 6.5q-121 0 -121 -176v-1223h-211v1569h188l11 -99q70 125 219 125q231 0 231 -266v-1329h-209z" />
    <glyph glyph-name="Nacute.uni" horiz-adv-x="808" 
d="M522 0v1223q0 55 -9.5 92t-26.5 54t-34 23.5t-38 6.5q-121 0 -121 -176v-1223h-211v1569h188l11 -99q70 125 219 125q231 0 231 -266v-1329h-209zM289 1712l117 268h227l-195 -268h-149z" />
    <glyph glyph-name="Ncaron.uni" horiz-adv-x="808" 
d="M522 0v1223q0 55 -9.5 92t-26.5 54t-34 23.5t-38 6.5q-121 0 -121 -176v-1223h-211v1569h188l11 -99q70 125 219 125q231 0 231 -266v-1329h-209zM319 1712l-161 289h159l93 -158l82 158h165l-153 -289h-185z" />
    <glyph glyph-name="Ncommaaccent.uni" horiz-adv-x="808" 
d="M522 0v1223q0 55 -9.5 92t-26.5 54t-34 23.5t-38 6.5q-121 0 -121 -176v-1223h-211v1569h188l11 -99q70 125 219 125q231 0 231 -266v-1329h-209zM240 -422l108 320h217l-170 -320h-155z" />
    <glyph glyph-name="Ntilde.uni" horiz-adv-x="808" 
d="M522 0v1223q0 55 -9.5 92t-26.5 54t-34 23.5t-38 6.5q-121 0 -121 -176v-1223h-211v1569h188l11 -99q70 125 219 125q231 0 231 -266v-1329h-209zM668 1907q-5 -88 -41.5 -141.5t-106.5 -53.5q-34 0 -87.5 19.5t-82.5 19.5q-15 0 -23.5 -2t-17.5 -11.5t-12 -27.5h-133
q5 88 41 141.5t106 53.5q34 0 87.5 -19.5t82.5 -19.5q48 0 54 41h133z" />
    <glyph glyph-name="OE.uni" horiz-adv-x="1239" 
d="M1178 301q0 -165 -89.5 -246.5t-242.5 -81.5t-232 88q-74 -88 -217 -88q-67 0 -124.5 19t-103 57.5t-71.5 103t-26 148.5v967q0 165 92 246t244 81q143 0 215 -86q77 86 223 86q70 0 128.5 -18.5t105 -56t72.5 -102t26 -150.5v-533h-459v-424q0 -73 35 -106t90 -33
q56 0 90.5 37.5t34.5 118.5v196h209v-223zM510 1257q0 72 -34 106t-81 34q-48 0 -81 -38t-33 -118v-913q0 -80 33 -118t81 -38q47 0 81 33.5t34 105.5v946zM969 1241q0 81 -34.5 118.5t-90.5 37.5q-55 0 -90 -33.5t-35 -106.5v-323h250v307z" />
    <glyph glyph-name="Omega.sc" horiz-adv-x="729" 
d="M389 0v205q66 17 66 119v600q0 62 -25 92.5t-65 30.5t-65.5 -30.5t-25.5 -92.5v-600q0 -102 66 -119v-205h-285v197l168 -11q-89 22 -122 77.5t-33 158.5v567q0 59 20.5 105t52 74t73 46t78.5 24.5t73 6.5q58 0 107 -12t93.5 -39t70.5 -79.5t26 -125.5v-567
q0 -103 -33.5 -158.5t-122.5 -77.5l168 11v-197h-285z" />
    <glyph glyph-name="R.alt" horiz-adv-x="784" 
d="M510 0v489q0 156 -135 156h-84v-645h-209v1569h352q126 0 205.5 -83t79.5 -245v-256q0 -178 -150 -237q150 -42 150 -252v-496h-209zM510 1214q0 85 -27 120.5t-88 35.5h-104v-526h104q61 0 88 35t27 120v215z" />
    <glyph glyph-name="Racute.alt" horiz-adv-x="784" 
d="M510 0v489q0 156 -135 156h-84v-645h-209v1569h352q126 0 205.5 -83t79.5 -245v-256q0 -178 -150 -237q150 -42 150 -252v-496h-209zM510 1214q0 85 -27 120.5t-88 35.5h-104v-526h104q61 0 88 35t27 120v215zM268 1712l117 268h227l-194 -268h-150z" />
    <glyph glyph-name="Rcaron.alt" horiz-adv-x="784" 
d="M510 0v489q0 156 -135 156h-84v-645h-209v1569h352q126 0 205.5 -83t79.5 -245v-256q0 -178 -150 -237q150 -42 150 -252v-496h-209zM510 1214q0 85 -27 120.5t-88 35.5h-104v-526h104q61 0 88 35t27 120v215zM289 1712l-162 289h160l92 -158l82 158h166l-154 -289h-184z
" />
    <glyph glyph-name="Rcommaaccent.alt" horiz-adv-x="784" 
d="M510 0v489q0 156 -135 156h-84v-645h-209v1569h352q126 0 205.5 -83t79.5 -245v-256q0 -178 -150 -237q150 -42 150 -252v-496h-209zM510 1214q0 85 -27 120.5t-88 35.5h-104v-526h104q61 0 88 35t27 120v215zM229 -422l109 320h217l-170 -320h-156z" />
    <glyph glyph-name="U.uni" horiz-adv-x="808" 
d="M539 0l-11 98q-70 -125 -219 -125q-231 0 -231 267v1329h209v-1223q0 -55 9.5 -92t26.5 -54t34 -23.5t38 -6.5q121 0 121 176v1223h211v-1569h-188z" />
    <glyph glyph-name="Uacute.uni" horiz-adv-x="808" 
d="M539 0l-11 98q-70 -125 -219 -125q-231 0 -231 267v1329h209v-1223q0 -55 9.5 -92t26.5 -54t34 -23.5t38 -6.5q121 0 121 176v1223h211v-1569h-188zM313 1712l117 268h227l-194 -268h-150z" />
    <glyph glyph-name="Ubreve.uni" horiz-adv-x="808" 
d="M539 0l-11 98q-70 -125 -219 -125q-231 0 -231 267v1329h209v-1223q0 -55 9.5 -92t26.5 -54t34 -23.5t38 -6.5q121 0 121 176v1223h211v-1569h-188zM641 1944q-9 -254 -240 -254q-236 0 -239 254h114q4 -109 125 -109q65 0 92.5 30t32.5 79h115z" />
    <glyph glyph-name="Ucircumflex.uni" horiz-adv-x="808" 
d="M539 0l-11 98q-70 -125 -219 -125q-231 0 -231 267v1329h209v-1223q0 -55 9.5 -92t26.5 -54t34 -23.5t38 -6.5q121 0 121 176v1223h211v-1569h-188zM471 1712l-92 158l-82 -158h-166l154 289h184l162 -289h-160z" />
    <glyph glyph-name="Udieresis.uni" horiz-adv-x="808" 
d="M539 0l-11 98q-70 -125 -219 -125q-231 0 -231 267v1329h209v-1223q0 -55 9.5 -92t26.5 -54t34 -23.5t38 -6.5q121 0 121 176v1223h211v-1569h-188zM227 1692q-51 0 -87 35t-36 88q0 50 36.5 85t86.5 35q51 0 86 -34.5t35 -85.5q0 -53 -35 -88t-86 -35zM575 1692
q-50 0 -85 35t-35 88q0 51 35 85.5t85 34.5q54 0 88.5 -34.5t34.5 -85.5q0 -54 -34.5 -88.5t-88.5 -34.5z" />
    <glyph glyph-name="Ugrave.uni" horiz-adv-x="808" 
d="M539 0l-11 98q-70 -125 -219 -125q-231 0 -231 267v1329h209v-1223q0 -55 9.5 -92t26.5 -54t34 -23.5t38 -6.5q121 0 121 176v1223h211v-1569h-188zM346 1712l-194 268h227l117 -268h-150z" />
    <glyph glyph-name="Uhungarumlaut.uni" horiz-adv-x="808" 
d="M539 0l-11 98q-70 -125 -219 -125q-231 0 -231 267v1329h209v-1223q0 -55 9.5 -92t26.5 -54t34 -23.5t38 -6.5q121 0 121 176v1223h211v-1569h-188zM154 1712l90 277h207l-127 -277h-170zM434 1712l90 277h207l-127 -277h-170z" />
    <glyph glyph-name="Umacron.uni" horiz-adv-x="808" 
d="M539 0l-11 98q-70 -125 -219 -125q-231 0 -231 267v1329h209v-1223q0 -55 9.5 -92t26.5 -54t34 -23.5t38 -6.5q121 0 121 176v1223h211v-1569h-188zM133 1712v166h537v-166h-537z" />
    <glyph glyph-name="Uogonek.uni" horiz-adv-x="808" 
d="M684 -426q-114 6 -186 71t-72 154q0 120 113 189l-11 110q-70 -125 -219 -125q-231 0 -231 267v1329h209v-1223q0 -55 9.5 -92t26.5 -54t34 -23.5t38 -6.5q121 0 121 176v1223h211v-1569q-58 -37 -88.5 -83.5t-30.5 -92.5q0 -49 38 -87.5t110 -55.5z" />
    <glyph glyph-name="Uring.uni" horiz-adv-x="808" 
d="M539 0l-11 98q-70 -125 -219 -125q-231 0 -231 267v1329h209v-1223q0 -55 9.5 -92t26.5 -54t34 -23.5t38 -6.5q121 0 121 176v1223h211v-1569h-188zM465 1847q0 29 -17.5 46.5t-46.5 17.5t-46 -17.5t-17 -46.5t17 -46t46 -17t46.5 17t17.5 46zM401 1669
q-75 0 -126.5 51.5t-51.5 126.5t51.5 126.5t126.5 51.5t127 -51.5t52 -126.5t-52 -126.5t-127 -51.5z" />
    <glyph glyph-name="Utilde.uni" horiz-adv-x="808" 
d="M539 0l-11 98q-70 -125 -219 -125q-231 0 -231 267v1329h209v-1223q0 -55 9.5 -92t26.5 -54t34 -23.5t38 -6.5q121 0 121 176v1223h211v-1569h-188zM653 1907q-5 -88 -41 -141.5t-106 -53.5q-34 0 -87.5 19.5t-82.5 19.5q-15 0 -23.5 -2t-17.5 -11.5t-12 -27.5h-133
q5 88 41 141.5t106 53.5q34 0 87.5 -19.5t82.5 -19.5q13 0 21 1.5t18.5 11t13.5 28.5h133z" />
    <glyph glyph-name="a.alt" horiz-adv-x="677" 
d="M432 0l-16 94q-25 -48 -71.5 -79t-104.5 -31q-106 0 -146.5 83.5t-40.5 251.5v74q0 167 53 239.5t166 72.5h134v122q0 87 -16 121.5t-58 34.5t-58 -34.5t-16 -121.5v-36h-205v55q0 171 68 251.5t211 80.5t210.5 -77t67.5 -243v-858h-178zM406 547h-74q-41 0 -57.5 -43
t-16.5 -133v-35q0 -87 16 -121.5t58 -34.5t58 34.5t16 121.5v211z" />
    <glyph glyph-name="a.sc" horiz-adv-x="679" 
d="M463 0l-29 250h-184l-31 -250h-207l164 1223h328l166 -1223h-207zM340 1028l-70 -579h140z" />
    <glyph glyph-name="a.sc.uni" horiz-adv-x="727" 
d="M459 0l-6 72q-34 -53 -79 -72.5t-108 -19.5q-110 0 -160.5 48t-50.5 152v320q0 88 56 136t163 48q58 0 97 -18t73 -66v324q0 66 -26.5 94.5t-63.5 28.5t-63.5 -28.5t-26.5 -94.5v-125h-207v202q0 81 48 138t117 81.5t149 24.5q128 0 204 -66t76 -186v-993h-192zM444 356
q0 77 -22 104t-68 27q-17 0 -30 -4t-28 -17.5t-23.5 -45.5t-8.5 -80v-21q0 -141 90 -141t90 137v41z" />
    <glyph glyph-name="aacute.alt" horiz-adv-x="677" 
d="M432 0l-16 94q-25 -48 -71.5 -79t-104.5 -31q-106 0 -146.5 83.5t-40.5 251.5v74q0 167 53 239.5t166 72.5h134v122q0 87 -16 121.5t-58 34.5t-58 -34.5t-16 -121.5v-36h-205v55q0 171 68 251.5t211 80.5t210.5 -77t67.5 -243v-858h-178zM406 547h-74q-41 0 -57.5 -43
t-16.5 -133v-35q0 -87 16 -121.5t58 -34.5t58 34.5t16 121.5v211zM229 1305l117 268h227l-194 -268h-150z" />
    <glyph glyph-name="aacute.sc" horiz-adv-x="679" 
d="M242 1329l104 242h221l-186 -242h-139zM463 0l-29 250h-184l-31 -250h-207l164 1223h328l166 -1223h-207zM340 1028l-70 -579h140z" />
    <glyph glyph-name="aacute.sc.uni" horiz-adv-x="727" 
d="M268 1329l105 242h221l-186 -242h-140zM459 0l-6 72q-34 -53 -79 -72.5t-108 -19.5q-110 0 -160.5 48t-50.5 152v320q0 88 56 136t163 48q58 0 97 -18t73 -66v324q0 66 -26.5 94.5t-63.5 28.5t-63.5 -28.5t-26.5 -94.5v-125h-207v202q0 81 48 138t117 81.5t149 24.5
q128 0 204 -66t76 -186v-993h-192zM444 356q0 77 -22 104t-68 27q-17 0 -30 -4t-28 -17.5t-23.5 -45.5t-8.5 -80v-21q0 -141 90 -141t90 137v41z" />
    <glyph glyph-name="abreve.alt" horiz-adv-x="677" 
d="M432 0l-16 94q-25 -48 -71.5 -79t-104.5 -31q-106 0 -146.5 83.5t-40.5 251.5v74q0 167 53 239.5t166 72.5h134v122q0 87 -16 121.5t-58 34.5t-58 -34.5t-16 -121.5v-36h-205v55q0 171 68 251.5t211 80.5t210.5 -77t67.5 -243v-858h-178zM406 547h-74q-41 0 -57.5 -43
t-16.5 -133v-35q0 -87 16 -121.5t58 -34.5t58 34.5t16 121.5v211zM575 1536q-9 -254 -239 -254q-237 0 -240 254h115q4 -109 125 -109q65 0 92.5 30t32.5 79h114z" />
    <glyph glyph-name="abreve.sc" horiz-adv-x="679" 
d="M555 1544q-5 -117 -53.5 -177t-161.5 -60t-162 60t-51 177h106q3 -21 6.5 -32.5t13.5 -27t32 -23t55 -7.5q27 0 46.5 6t29.5 13.5t17 22t8.5 23l4.5 25.5h109zM463 0l-29 250h-184l-31 -250h-207l164 1223h328l166 -1223h-207zM340 1028l-70 -579h140z" />
    <glyph glyph-name="abreve.sc.uni" horiz-adv-x="727" 
d="M565 1544q-5 -117 -53.5 -177t-161.5 -60t-162 60t-51 177h107l4.5 -25.5t8.5 -23t17 -22t29.5 -13.5t46.5 -6q33 0 55 7.5t32 23t13.5 27t6.5 32.5h108zM459 0l-6 72q-34 -53 -79 -72.5t-108 -19.5q-110 0 -160.5 48t-50.5 152v320q0 88 56 136t163 48q58 0 97 -18
t73 -66v324q0 66 -26.5 94.5t-63.5 28.5t-63.5 -28.5t-26.5 -94.5v-125h-207v202q0 81 48 138t117 81.5t149 24.5q128 0 204 -66t76 -186v-993h-192zM444 356q0 77 -22 104t-68 27q-17 0 -30 -4t-28 -17.5t-23.5 -45.5t-8.5 -80v-21q0 -141 90 -141t90 137v41z" />
    <glyph glyph-name="acircumflex.alt" horiz-adv-x="677" 
d="M432 0l-16 94q-25 -48 -71.5 -79t-104.5 -31q-106 0 -146.5 83.5t-40.5 251.5v74q0 167 53 239.5t166 72.5h134v122q0 87 -16 121.5t-58 34.5t-58 -34.5t-16 -121.5v-36h-205v55q0 171 68 251.5t211 80.5t210.5 -77t67.5 -243v-858h-178zM406 547h-74q-41 0 -57.5 -43
t-16.5 -133v-35q0 -87 16 -121.5t58 -34.5t58 34.5t16 121.5v211zM420 1305l-92 157l-82 -157h-166l153 288h185l162 -288h-160z" />
    <glyph glyph-name="acircumflex.sc" horiz-adv-x="679" 
d="M416 1329l-78 139l-68 -139h-157l139 270h166l149 -270h-151zM463 0l-29 250h-184l-31 -250h-207l164 1223h328l166 -1223h-207zM340 1028l-70 -579h140z" />
    <glyph glyph-name="acircumflex.sc.uni" horiz-adv-x="727" 
d="M426 1329l-78 139l-67 -139h-158l139 270h166l150 -270h-152zM459 0l-6 72q-34 -53 -79 -72.5t-108 -19.5q-110 0 -160.5 48t-50.5 152v320q0 88 56 136t163 48q58 0 97 -18t73 -66v324q0 66 -26.5 94.5t-63.5 28.5t-63.5 -28.5t-26.5 -94.5v-125h-207v202q0 81 48 138
t117 81.5t149 24.5q128 0 204 -66t76 -186v-993h-192zM444 356q0 77 -22 104t-68 27q-17 0 -30 -4t-28 -17.5t-23.5 -45.5t-8.5 -80v-21q0 -141 90 -141t90 137v41z" />
    <glyph glyph-name="acute.sc" horiz-adv-x="299" 
d="M0 1012l104 241h222l-187 -241h-139z" />
    <glyph glyph-name="adieresis.alt" horiz-adv-x="675" 
d="M432 0l-16 94q-25 -48 -71.5 -79t-104.5 -31q-106 0 -146.5 83.5t-40.5 251.5v74q0 167 53 239.5t166 72.5h134v122q0 87 -16 121.5t-58 34.5t-58 -34.5t-16 -121.5v-36h-205v55q0 171 68 251.5t211 80.5t210.5 -77t67.5 -243v-858h-178zM406 547h-74q-41 0 -57.5 -43
t-16.5 -133v-35q0 -87 16 -121.5t58 -34.5t58 34.5t16 121.5v211zM158 1284q-51 0 -87 35t-36 88q0 50 36.5 85.5t86.5 35.5q51 0 86 -35t35 -86q0 -53 -34.5 -88t-86.5 -35zM506 1284q-50 0 -85.5 35t-35.5 88q0 51 35.5 86t85.5 35q54 0 88.5 -35t34.5 -86
q0 -54 -34.5 -88.5t-88.5 -34.5z" />
    <glyph glyph-name="adieresis.sc" horiz-adv-x="679" 
d="M182 1313q-45 0 -79.5 33t-34.5 81q0 46 34.5 79.5t79.5 33.5q47 0 80 -33t33 -80q0 -49 -32.5 -81.5t-80.5 -32.5zM496 1313q-45 0 -78 32.5t-33 81.5q0 47 33 80t78 33q49 0 81.5 -32.5t32.5 -80.5q0 -49 -32 -81.5t-82 -32.5zM463 0l-29 250h-184l-31 -250h-207
l164 1223h328l166 -1223h-207zM340 1028l-70 -579h140z" />
    <glyph glyph-name="adieresis.sc.uni" horiz-adv-x="727" 
d="M195 1313q-46 0 -80.5 33t-34.5 81q0 46 35 79.5t80 33.5q47 0 79.5 -33t32.5 -80q0 -49 -32 -81.5t-80 -32.5zM508 1313q-45 0 -78 32.5t-33 81.5q0 47 33 80t78 33q49 0 82 -32.5t33 -80.5q0 -49 -32.5 -81.5t-82.5 -32.5zM459 0l-6 72q-34 -53 -79 -72.5t-108 -19.5
q-110 0 -160.5 48t-50.5 152v320q0 88 56 136t163 48q58 0 97 -18t73 -66v324q0 66 -26.5 94.5t-63.5 28.5t-63.5 -28.5t-26.5 -94.5v-125h-207v202q0 81 48 138t117 81.5t149 24.5q128 0 204 -66t76 -186v-993h-192zM444 356q0 77 -22 104t-68 27q-17 0 -30 -4t-28 -17.5
t-23.5 -45.5t-8.5 -80v-21q0 -141 90 -141t90 137v41z" />
    <glyph glyph-name="ae.sc" horiz-adv-x="1015" 
d="M451 0v250h-185l-65 -250h-205l319 1223h650v-193h-308v-315h297v-193h-297v-329h308v-193h-514zM451 971l-138 -508h138v508z" />
    <glyph glyph-name="ae.sc.uni" horiz-adv-x="1110" 
d="M1053 223q0 -119 -81.5 -181t-219.5 -62q-93 0 -165 33.5t-110 95.5q-66 -129 -211 -129q-110 0 -160.5 48t-50.5 152v320q0 88 56 136t163 48q58 0 97 -18t73 -66v336q0 57 -27.5 84t-62.5 27q-37 0 -63.5 -28.5t-26.5 -94.5v-125h-207v202q0 81 48 138t117 81.5
t149 24.5q123 0 182 -69q64 69 199 69q130 0 215.5 -61t85.5 -180v-453h-402v-266q0 -57 28.5 -82t70.5 -25t69 28.5t27 92.5v111h207v-187zM846 924q0 123 -96 123q-15 0 -29 -3.5t-31.5 -14.5t-28 -37t-10.5 -64v-180h195v176zM354 178q90 0 90 121v57q0 77 -22 104
t-68 27q-17 0 -30 -4t-28 -17.5t-23.5 -45.5t-8.5 -80v-21q0 -141 90 -141z" />
    <glyph glyph-name="aeacute.sc" horiz-adv-x="1015" 
d="M514 1329l104 242h222l-187 -242h-139zM451 0v250h-185l-65 -250h-205l319 1223h650v-193h-308v-315h297v-193h-297v-329h308v-193h-514zM451 971l-138 -508h138v508z" />
    <glyph glyph-name="aeacute.sc.uni" horiz-adv-x="1110" 
d="M446 1329l105 242h221l-186 -242h-140zM1053 223q0 -119 -81.5 -181t-219.5 -62q-93 0 -165 33.5t-110 95.5q-66 -129 -211 -129q-110 0 -160.5 48t-50.5 152v320q0 88 56 136t163 48q58 0 97 -18t73 -66v336q0 57 -27.5 84t-62.5 27q-37 0 -63.5 -28.5t-26.5 -94.5v-125
h-207v202q0 81 48 138t117 81.5t149 24.5q123 0 182 -69q64 69 199 69q130 0 215.5 -61t85.5 -180v-453h-402v-266q0 -57 28.5 -82t70.5 -25t69 28.5t27 92.5v111h207v-187zM846 924q0 123 -96 123q-15 0 -29 -3.5t-31.5 -14.5t-28 -37t-10.5 -64v-180h195v176zM354 178
q90 0 90 121v57q0 77 -22 104t-68 27q-17 0 -30 -4t-28 -17.5t-23.5 -45.5t-8.5 -80v-21q0 -141 90 -141z" />
    <glyph glyph-name="agrave.alt" horiz-adv-x="677" 
d="M432 0l-16 94q-25 -48 -71.5 -79t-104.5 -31q-106 0 -146.5 83.5t-40.5 251.5v74q0 167 53 239.5t166 72.5h134v122q0 87 -16 121.5t-58 34.5t-58 -34.5t-16 -121.5v-36h-205v55q0 171 68 251.5t211 80.5t210.5 -77t67.5 -243v-858h-178zM406 547h-74q-41 0 -57.5 -43
t-16.5 -133v-35q0 -87 16 -121.5t58 -34.5t58 34.5t16 121.5v211zM309 1305l-194 268h227l117 -268h-150z" />
    <glyph glyph-name="agrave.sc" horiz-adv-x="679" 
d="M279 1329l-189 242h221l105 -242h-137zM463 0l-29 250h-184l-31 -250h-207l164 1223h328l166 -1223h-207zM340 1028l-70 -579h140z" />
    <glyph glyph-name="agrave.sc.uni" horiz-adv-x="727" 
d="M309 1329l-188 242h221l104 -242h-137zM459 0l-6 72q-34 -53 -79 -72.5t-108 -19.5q-110 0 -160.5 48t-50.5 152v320q0 88 56 136t163 48q58 0 97 -18t73 -66v324q0 66 -26.5 94.5t-63.5 28.5t-63.5 -28.5t-26.5 -94.5v-125h-207v202q0 81 48 138t117 81.5t149 24.5
q128 0 204 -66t76 -186v-993h-192zM444 356q0 77 -22 104t-68 27q-17 0 -30 -4t-28 -17.5t-23.5 -45.5t-8.5 -80v-21q0 -141 90 -141t90 137v41z" />
    <glyph glyph-name="alpha.alt" horiz-adv-x="686" 
d="M442 0l-18 94q-14 -22 -26 -36.5t-34 -34t-54.5 -29.5t-73.5 -10q-102 0 -138.5 73t-36.5 246v547q0 168 67.5 248t213.5 80q142 0 209 -78.5t67 -249.5v-850h-176zM414 827q0 87 -16 121.5t-58 34.5t-58 -34.5t-16 -121.5v-493q0 -87 16 -121.5t58 -34.5t58 34.5
t16 121.5v493z" />
    <glyph glyph-name="alpha.sc" horiz-adv-x="679" 
d="M463 0l-29 250h-184l-31 -250h-207l164 1223h328l166 -1223h-207zM340 1028l-70 -579h140z" />
    <glyph glyph-name="alphatonos.alt" horiz-adv-x="686" 
d="M442 0l-18 94q-14 -22 -26 -36.5t-34 -34t-54.5 -29.5t-73.5 -10q-102 0 -138.5 73t-36.5 246v547q0 168 67.5 248t213.5 80q142 0 209 -78.5t67 -249.5v-850h-176zM414 827q0 87 -16 121.5t-58 34.5t-58 -34.5t-16 -121.5v-493q0 -87 16 -121.5t58 -34.5t58 34.5
t16 121.5v493zM211 1305l117 268h227l-195 -268h-149z" />
    <glyph glyph-name="alphatonos.sc" horiz-adv-x="679" 
d="M463 0l-29 250h-184l-31 -250h-207l164 1223h328l166 -1223h-207zM340 1028l-70 -579h140zM236 1329l104 242h221l-186 -242h-139z" />
    <glyph glyph-name="amacron.alt" horiz-adv-x="677" 
d="M432 0l-16 94q-25 -48 -71.5 -79t-104.5 -31q-106 0 -146.5 83.5t-40.5 251.5v74q0 167 53 239.5t166 72.5h134v122q0 87 -16 121.5t-58 34.5t-58 -34.5t-16 -121.5v-36h-205v55q0 171 68 251.5t211 80.5t210.5 -77t67.5 -243v-858h-178zM406 547h-74q-41 0 -57.5 -43
t-16.5 -133v-35q0 -87 16 -121.5t58 -34.5t58 34.5t16 121.5v211zM66 1305v165h536v-165h-536z" />
    <glyph glyph-name="amacron.sc" horiz-adv-x="679" 
d="M98 1329v164h486v-164h-486zM463 0l-29 250h-184l-31 -250h-207l164 1223h328l166 -1223h-207zM340 1028l-70 -579h140z" />
    <glyph glyph-name="amacron.sc.uni" horiz-adv-x="727" 
d="M109 1329v164h485v-164h-485zM459 0l-6 72q-34 -53 -79 -72.5t-108 -19.5q-110 0 -160.5 48t-50.5 152v320q0 88 56 136t163 48q58 0 97 -18t73 -66v324q0 66 -26.5 94.5t-63.5 28.5t-63.5 -28.5t-26.5 -94.5v-125h-207v202q0 81 48 138t117 81.5t149 24.5q128 0 204 -66
t76 -186v-993h-192zM444 356q0 77 -22 104t-68 27q-17 0 -30 -4t-28 -17.5t-23.5 -45.5t-8.5 -80v-21q0 -141 90 -141t90 137v41z" />
    <glyph glyph-name="ampersand.sc" horiz-adv-x="747" 
d="M645 547v-275q0 -292 -291 -292q-301 0 -301 307v133q0 90 28 141t107 76q-80 22 -107.5 68.5t-27.5 134.5v118q0 137 78 211t234 74q148 0 214 -67.5t66 -196.5v-21h-207q0 41 -25.5 65t-62.5 24q-39 0 -64.5 -30.5t-25.5 -92.5v-86q0 -31 15 -53t38 -32.5t44 -15
t40 -4.5h41v96h207v-96h78v-186h-78zM438 547h-41q-19 0 -40 -4.5t-44 -15t-38 -33t-15 -54.5v-141q0 -62 25.5 -91.5t64.5 -29.5t63.5 29.5t24.5 91.5v248z" />
    <glyph glyph-name="angstrom.sc" horiz-adv-x="706" 
d="M475 0l-29 250h-184l-31 -250h-206l206 1198q-20 20 -31.5 49.5t-11.5 55.5q0 68 47 110.5t117 42.5t117 -42.5t47 -110.5q0 -26 -11.5 -55.5t-31.5 -49.5l209 -1198h-207zM352 1055l-69 -606h139zM401 1292q0 49 -49 49t-49 -49t49 -49t49 49z" />
    <glyph glyph-name="aogonek.alt" horiz-adv-x="677" 
d="M567 -426q-114 6 -186 71.5t-72 155.5q0 122 123 193l-16 100q-25 -48 -72 -79t-111 -31q-100 0 -140 84.5t-40 250.5v74q0 167 53 239.5t166 72.5h134v122q0 87 -16 121.5t-58 34.5t-58 -34.5t-16 -121.5v-36h-205v55q0 173 67.5 252.5t213.5 79.5q141 0 208.5 -77.5
t67.5 -242.5v-858q-58 -37 -88 -83.5t-30 -92.5q0 -49 37.5 -87.5t109.5 -55.5zM406 547h-74q-41 0 -57.5 -43t-16.5 -133v-35q0 -87 16 -121.5t58 -34.5t58 34.5t16 121.5v211z" />
    <glyph glyph-name="aogonek.sc" horiz-adv-x="677" 
d="M643 -373q-104 4 -173 62.5t-69 140.5q0 77 64 141l-37 279h-180l-31 -250h-207l164 1223h328l166 -1223q-80 -90 -80 -141q0 -38 30 -73.5t97 -51.5zM338 1028l-70 -579h140z" />
    <glyph glyph-name="aogonek.sc.uni" horiz-adv-x="727" 
d="M651 0q-96 -63 -96 -141q0 -38 30 -73.5t97 -51.5l-72 -107q-102 4 -170.5 62.5t-68.5 140.5q0 96 88 162l-6 80q-34 -53 -79 -72.5t-108 -19.5q-110 0 -160.5 48t-50.5 152v320q0 88 56 136t163 48q58 0 97 -18t73 -66v324q0 66 -26.5 94.5t-63.5 28.5t-63.5 -28.5
t-26.5 -94.5v-125h-207v202q0 81 48 138t117 81.5t149 24.5q128 0 204 -66t76 -186v-993zM444 356q0 77 -22 104t-68 27q-17 0 -30 -4t-28 -17.5t-23.5 -45.5t-8.5 -80v-21q0 -141 90 -141t90 137v41z" />
    <glyph glyph-name="aring.alt" horiz-adv-x="677" 
d="M432 0l-16 94q-25 -48 -71.5 -79t-104.5 -31q-106 0 -146.5 83.5t-40.5 251.5v74q0 167 53 239.5t166 72.5h134v122q0 87 -16 121.5t-58 34.5t-58 -34.5t-16 -121.5v-36h-205v55q0 171 68 251.5t211 80.5t210.5 -77t67.5 -243v-858h-178zM406 547h-74q-41 0 -57.5 -43
t-16.5 -133v-35q0 -87 16 -121.5t58 -34.5t58 34.5t16 121.5v211zM397 1440q0 29 -17 46t-46 17t-46.5 -17t-17.5 -46t17.5 -46.5t46.5 -17.5t46 17.5t17 46.5zM334 1262q-75 0 -126.5 51.5t-51.5 126.5t51.5 126.5t126.5 51.5t126.5 -51.5t51.5 -126.5t-51.5 -126.5
t-126.5 -51.5z" />
    <glyph glyph-name="aring.sc" horiz-adv-x="679" 
d="M385 1473q0 45 -45 45q-43 0 -43 -45q0 -43 43 -43q45 0 45 43zM340 1309q-69 0 -116.5 47.5t-47.5 116.5t47.5 116t116.5 47t116.5 -47t47.5 -116t-47.5 -116.5t-116.5 -47.5zM463 0l-29 250h-184l-31 -250h-207l164 1223h328l166 -1223h-207zM340 1028l-70 -579h140z
" />
    <glyph glyph-name="aring.sc.uni" horiz-adv-x="727" 
d="M395 1462q0 45 -45 45q-43 0 -43 -45q0 -43 43 -43q45 0 45 43zM350 1298q-69 0 -116.5 47.5t-47.5 116.5t47.5 116.5t116.5 47.5t116.5 -47.5t47.5 -116.5t-47.5 -116.5t-116.5 -47.5zM459 0l-6 72q-34 -53 -79 -72.5t-108 -19.5q-110 0 -160.5 48t-50.5 152v320
q0 88 56 136t163 48q58 0 97 -18t73 -66v324q0 66 -26.5 94.5t-63.5 28.5t-63.5 -28.5t-26.5 -94.5v-125h-207v202q0 81 48 138t117 81.5t149 24.5q128 0 204 -66t76 -186v-993h-192zM444 356q0 77 -22 104t-68 27q-17 0 -30 -4t-28 -17.5t-23.5 -45.5t-8.5 -80v-21
q0 -141 90 -141t90 137v41z" />
    <glyph glyph-name="asterisk.sc" horiz-adv-x="538" 
d="M322 750l-52 170l-51 -172l-137 79l129 138l-168 -39v151l162 -37l-127 134l137 79l55 -180l52 178l139 -77l-127 -136l162 35v-147l-164 39l129 -138z" />
    <glyph glyph-name="atilde.alt" horiz-adv-x="677" 
d="M432 0l-16 94q-25 -48 -71.5 -79t-104.5 -31q-106 0 -146.5 83.5t-40.5 251.5v74q0 167 53 239.5t166 72.5h134v122q0 87 -16 121.5t-58 34.5t-58 -34.5t-16 -121.5v-36h-205v55q0 171 68 251.5t211 80.5t210.5 -77t67.5 -243v-858h-178zM406 547h-74q-41 0 -57.5 -43
t-16.5 -133v-35q0 -87 16 -121.5t58 -34.5t58 34.5t16 121.5v211zM584 1499q-5 -87 -41.5 -140.5t-106.5 -53.5q-34 0 -87.5 19t-82.5 19q-15 0 -23.5 -1.5t-17.5 -11t-12 -27.5h-133q5 88 41 141t106 53q34 0 87.5 -19.5t82.5 -19.5q48 0 54 41h133z" />
    <glyph glyph-name="atilde.sc" horiz-adv-x="679" 
d="M565 1518q0 -187 -125 -187q-28 0 -78 16.5t-79 16.5h-5h-8t-7 -0.5t-7.5 -1.5t-7 -2.5t-7 -4.5t-5 -7t-4 -9t-1.5 -12h-114q4 97 36 141.5t93 44.5q28 0 74.5 -17t78.5 -17l7 -1q8 -1 14 -0.5t13.5 3.5t12.5 12.5t7 24.5h112zM463 0l-29 250h-184l-31 -250h-207
l164 1223h328l166 -1223h-207zM340 1028l-70 -579h140z" />
    <glyph glyph-name="atilde.sc.uni" horiz-adv-x="724" 
d="M573 1518q0 -187 -124 -187q-29 0 -79.5 16t-78.5 17q-49 0 -51 -37h-115q4 97 36 141.5t93 44.5q28 0 75 -17t79 -17q46 0 53 39h112zM457 0l-6 72q-34 -53 -79 -72.5t-108 -19.5q-110 0 -160.5 48t-50.5 152v320q0 88 56 136t163 48q58 0 97 -18t73 -66v324
q0 66 -26.5 94.5t-63.5 28.5t-63.5 -28.5t-26.5 -94.5v-125h-207v202q0 81 48 138t117 81.5t149 24.5q128 0 204 -66t76 -186v-993h-192zM442 356q0 77 -22 104t-68 27q-17 0 -30 -4t-28 -17.5t-23.5 -45.5t-8.5 -80v-21q0 -141 90 -141t90 137v41z" />
    <glyph glyph-name="b.sc" horiz-adv-x="718" 
d="M72 0v1223h350q108 0 170.5 -66.5t62.5 -189.5v-156q0 -125 -114 -184q75 -35 103 -80t28 -117v-174q0 -119 -59.5 -187.5t-166.5 -68.5h-374zM449 907q0 65 -22 94t-67 29h-81v-309h81q45 0 67 28.5t22 94.5v63zM465 408q0 62 -28.5 91t-76.5 29h-81v-335h98
q45 0 66.5 28t21.5 94v93z" />
    <glyph glyph-name="beta.sc" horiz-adv-x="718" 
d="M72 0v1223h350q108 0 170.5 -66.5t62.5 -189.5v-156q0 -125 -114 -184q75 -35 103 -80t28 -117v-174q0 -119 -59.5 -187.5t-166.5 -68.5h-374zM449 907q0 65 -22 94t-67 29h-81v-309h81q45 0 67 28.5t22 94.5v63zM465 408q0 62 -28.5 91t-76.5 29h-81v-335h98
q45 0 66.5 28t21.5 94v93z" />
    <glyph glyph-name="braceleft.sc" horiz-adv-x="524" 
d="M489 -272h-167q-94 0 -134.5 44.5t-40.5 127.5v301q0 97 -27.5 147.5t-107.5 57.5v135q78 10 106.5 64.5t28.5 144.5v301q0 86 40 129t135 43h167v-164h-86q-20 0 -32 -9t-17 -30.5t-6.5 -41t-1.5 -56.5v-236q0 -93 -36 -144t-87 -67q50 -12 86.5 -63.5t36.5 -145.5v-229
q0 -34 0.5 -52t3.5 -38t9 -28.5t17 -14.5t27 -6h86v-170z" />
    <glyph glyph-name="braceright.sc" horiz-adv-x="524" 
d="M377 -100q0 -83 -40 -127.5t-134 -44.5h-168v170h86q14 0 23.5 3t15.5 12.5t9 17.5t4.5 28t2 33.5t0.5 44.5v229q0 94 37 145.5t88 63.5q-52 16 -88.5 67t-36.5 144v236q0 26 -0.5 38.5t-1.5 32t-4.5 28.5t-9.5 19.5t-16 14.5t-23 4h-86v164h168q94 0 134 -43t40 -129
v-301q0 -90 28.5 -144.5t106.5 -64.5v-135q-80 -7 -107.5 -57.5t-27.5 -147.5v-301z" />
    <glyph glyph-name="bracketleft.sc" horiz-adv-x="471" 
d="M84 -272v1495h352v-164h-151v-1161h151v-170h-352z" />
    <glyph glyph-name="bracketright.sc" horiz-adv-x="471" 
d="M35 -272v168h153v1163h-153v164h352v-1495h-352z" />
    <glyph glyph-name="breve.sc" horiz-adv-x="489" 
d="M459 1225q-5 -118 -53.5 -178t-161.5 -60t-162 60.5t-51 177.5h106q3 -21 6.5 -32.5t13.5 -27t32 -23t55 -7.5q27 0 46.5 6t29.5 13.5t17 22t8.5 23l4.5 25.5h109z" />
    <glyph glyph-name="c.sc" horiz-adv-x="706" 
d="M270 301q0 -62 25 -92.5t65 -30.5t65.5 30.5t25.5 92.5v109h206v-174q0 -73 -26 -125.5t-70.5 -79.5t-93.5 -39t-107 -12q-36 0 -73 6.5t-78.5 24.5t-73 46t-52 74t-20.5 105v753q0 59 20.5 105t52 74t73 46t78.5 24.5t73 6.5q58 0 107 -12t93.5 -39t70.5 -79.5
t26 -125.5v-192h-206v127q0 62 -25.5 92.5t-65.5 30.5t-65 -30.5t-25 -92.5v-623z" />
    <glyph glyph-name="cacute.sc" horiz-adv-x="706" 
d="M250 1329l104 242h221l-186 -242h-139zM270 301q0 -62 25 -92.5t65 -30.5t65.5 30.5t25.5 92.5v109h206v-174q0 -73 -26 -125.5t-70.5 -79.5t-93.5 -39t-107 -12q-36 0 -73 6.5t-78.5 24.5t-73 46t-52 74t-20.5 105v753q0 59 20.5 105t52 74t73 46t78.5 24.5t73 6.5
q58 0 107 -12t93.5 -39t70.5 -79.5t26 -125.5v-192h-206v127q0 62 -25.5 92.5t-65.5 30.5t-65 -30.5t-25 -92.5v-623z" />
    <glyph glyph-name="caron.sc" horiz-adv-x="516" 
d="M180 1012l-149 270h149l82 -139l64 139h159l-139 -270h-166z" />
    <glyph glyph-name="ccaron.sc" horiz-adv-x="706" 
d="M279 1329l-150 270h150l81 -139l64 139h160l-140 -270h-165zM270 301q0 -62 25 -92.5t65 -30.5t65.5 30.5t25.5 92.5v109h206v-174q0 -73 -26 -125.5t-70.5 -79.5t-93.5 -39t-107 -12q-36 0 -73 6.5t-78.5 24.5t-73 46t-52 74t-20.5 105v753q0 59 20.5 105t52 74t73 46
t78.5 24.5t73 6.5q58 0 107 -12t93.5 -39t70.5 -79.5t26 -125.5v-192h-206v127q0 62 -25.5 92.5t-65.5 30.5t-65 -30.5t-25 -92.5v-623z" />
    </font>
</defs>
</svg>
